<?xml version="1.0" standalone="no"?>
<!DOCTYPE svg PUBLIC "-//W3C//DTD SVG 1.1//EN" "http://www.w3.org/Graphics/SVG/1.1/DTD/svg11.dtd" >
<svg xmlns="http://www.w3.org/2000/svg" xmlns:xlink="http://www.w3.org/1999/xlink" version="1.1">
<metadata>
Created by FontForge 20170924 at Wed Apr  8 15:36:24 2020
 By www-data
Copyright \(c\) 2020 by . All rights reserved.
</metadata>
<defs>
<font id="Mallinkha" horiz-adv-x="510" >
  <font-face 
    font-family="Mallinkha"
    font-weight="400"
    font-stretch="normal"
    units-per-em="1000"
    panose-1="0 0 0 0 0 0 0 0 0 0"
    ascent="800"
    descent="-200"
    x-height="216"
    cap-height="657"
    bbox="-259.424 -425.229 973 875"
    underline-thickness="50"
    underline-position="-100"
    stemh="34"
    stemv="63"
    unicode-range="U+000D-FB06"
  />
<missing-glyph horiz-adv-x="219" 
 />
    <glyph glyph-name="c_c" unicode="cc" horiz-adv-x="459" 
d="M350 246v0c22 1 31 -18 31 -57c0 -26 -1 -33 -8 -40c-7 -8 -9 -9 -14 -4c-5 4 -6 10 -4 24c2 19 0 36 -6 36c-7 0 -31 -42 -42 -74c-12 -32 -16 -77 -10 -95c4 -10 35 -9 58 3c23 13 101 75 141 114c30 30 42 40 47 27c3 -10 -41 -57 -109 -113c-54 -45 -77 -60 -105 -67
c-23 -6 -30 -5 -48 4c-23 12 -36 38 -34 84c0 9 1 17 2 25c-15 -13 -32 -26 -51 -41c-54 -40 -77 -53 -105 -60c-23 -5 -30 -5 -48 4c-23 10 -36 34 -34 75c1 22 4 37 17 65c19 40 46 68 69 75c34 10 49 -5 49 -49c0 -23 -2 -29 -9 -36s-9 -8 -14 -3c-5 3 -6 8 -4 21
c3 17 0 32 -6 32c-7 0 -31 -37 -42 -66s-16 -65 -9 -81c3 -10 34 -8 57 3c24 11 101 67 141 103c1 1 2 1 3 2c0 1 1 2 1 3c19 45 46 75 69 83c6 2 12 3 17 3z" />
    <glyph glyph-name="e_e" unicode="ee" horiz-adv-x="463" 
d="M350 246v0c15 0 20 -2 30 -14c12 -13 12 -13 10 -49c-2 -40 -8 -57 -26 -74c-13 -13 -29 -15 -50 -7c-16 7 -19 1 -19 -32c0 -35 5 -47 18 -47c19 0 67 30 113 71c23 20 85 83 95 96c8 10 23 10 26 0c2 -5 -10 -21 -46 -61c-86 -93 -155 -145 -195 -145
c-18 0 -21 1 -34 16c-18 22 -25 48 -22 92c0 9 1 18 3 26c-81 -76 -147 -118 -185 -118c-19 0 -22 1 -35 14c-18 20 -24 42 -22 81c4 72 51 135 100 135c16 0 21 -2 31 -12c11 -11 11 -12 9 -43c-2 -35 -8 -51 -26 -66c-13 -11 -29 -12 -49 -5c-16 5 -20 1 -20 -28
c0 -31 5 -42 18 -42c20 0 67 26 114 62c17 14 54 46 77 68c18 48 51 82 85 82zM355 205v0c-2 0 -5 -2 -10 -5c-12 -7 -35 -43 -35 -55c0 -7 12 -14 27 -17c2 0 6 4 11 10c9 11 15 48 11 62c-1 3 -2 5 -4 5zM116 194v0c-1 0 -4 -2 -9 -4c-13 -6 -35 -38 -35 -49
c0 -6 11 -12 27 -14c1 -1 6 3 10 8c9 10 16 43 11 55c-1 2 -2 4 -4 4z" />
    <glyph glyph-name="f_f" unicode="ff" horiz-adv-x="404" 
d="M401 464v0c21 0 25 -16 13 -51c-5 -15 -9 -20 -15 -21c-7 -1 -13 -9 -24 -34c-19 -41 -50 -120 -75 -191c-20 -58 -20 -57 8 -61c34 -6 61 3 114 35c39 23 42 25 48 19c9 -9 4 -16 -28 -38c-49 -34 -71 -43 -110 -45c-27 -1 -34 -3 -32 -7c1 -2 4 -19 6 -37
c7 -49 0 -96 -26 -171c-20 -58 -55 -119 -74 -129c-13 -7 -11 -7 -25 1c-37 23 -35 96 6 256c10 38 25 90 35 122c-39 -25 -60 -32 -95 -34c-27 -1 -34 -2 -32 -6c1 -3 5 -19 8 -36c8 -45 2 -90 -22 -160c-18 -54 -51 -112 -69 -121c-14 -7 -12 -7 -26 1
c-37 21 -38 90 -1 240c9 38 24 93 33 121c67 203 129 325 166 325c22 0 26 -15 15 -48c-5 -14 -9 -19 -15 -20c-6 0 -12 -8 -23 -32c-18 -38 -46 -112 -69 -179c-18 -55 -18 -54 10 -58c34 -5 61 3 113 33c9 5 15 9 20 12c69 197 131 314 166 314zM64 76l-9 -30
c-26 -81 -57 -243 -47 -243c1 0 7 11 14 23c41 72 59 156 48 217zM269 75l-10 -32c-28 -86 -65 -258 -55 -258c1 0 8 11 15 24c43 77 64 166 55 231z" />
    <glyph glyph-name="o_o" unicode="oo" horiz-adv-x="505" 
d="M365 267v0c13 0 35 -18 35 -29c0 -4 4 -10 10 -15c5 -4 11 -16 14 -25c3 -13 7 -19 16 -23c24 -11 48 -12 89 -2c54 13 61 13 61 0s-9 -18 -51 -30c-31 -9 -75 -11 -96 -5c-11 4 -12 4 -14 -7c-11 -54 -21 -82 -41 -108c-23 -31 -58 -42 -82 -25c-27 18 -37 42 -37 91
c0 27 6 58 15 84c-38 -20 -85 -40 -98 -36c-12 4 -13 3 -15 -6c-10 -49 -21 -74 -40 -98c-23 -28 -59 -37 -83 -22c-27 16 -36 38 -36 82c0 38 12 81 31 111c16 24 48 49 64 49v0c13 0 35 -16 35 -26c0 -3 5 -9 10 -13s11 -15 14 -23c4 -12 8 -17 17 -21
c23 -10 94 23 123 52l4 4c17 22 41 41 55 41zM381 217l-11 -12c-35 -37 -59 -140 -39 -166c6 -8 5 -8 19 0c23 13 44 56 49 101c2 20 1 25 -8 39c-6 9 -10 21 -10 27v11zM123 208l-11 -10c-35 -34 -59 -126 -39 -150c6 -8 6 -8 19 0c23 11 44 51 49 91c2 18 1 22 -8 35
c-5 8 -10 19 -10 25v9z" />
    <glyph glyph-name="r_r" unicode="rr" horiz-adv-x="502" 
d="M327 255v0c7 0 13 -3 18 -8c9 -9 10 -19 3 -34c-3 -5 -8 -17 -10 -25c-3 -13 -3 -15 5 -18c12 -4 36 2 45 12c16 16 38 5 38 -21c0 -7 -6 -31 -14 -53c-35 -99 -40 -117 -46 -143c-3 -15 -5 -32 -5 -38c0 -10 0 -10 10 -5c22 12 54 51 117 143c63 91 82 110 93 93
c3 -4 -3 -14 -25 -46c-16 -22 -43 -61 -61 -87c-55 -83 -91 -124 -120 -139c-18 -9 -28 -9 -44 0v0c-16 10 -24 32 -24 68c0 41 11 92 30 136c9 21 16 39 16 41s-7 5 -16 6c-7 1 -13 2 -18 3c-4 -6 -10 -13 -18 -23c-15 -21 -43 -57 -60 -81c-56 -77 -91 -115 -120 -129
c-18 -9 -29 -9 -44 0v0c-16 9 -24 30 -24 63c0 38 11 85 30 126c9 19 16 36 16 38s-8 4 -17 6c-32 4 -45 9 -53 21c-13 21 -6 52 19 76c14 14 31 16 43 5c9 -9 10 -18 2 -32c-3 -5 -7 -15 -9 -23c-4 -12 -3 -14 5 -16c12 -5 36 1 45 10c16 16 38 5 38 -19
c0 -7 -7 -29 -14 -49c-35 -92 -41 -109 -46 -133c-3 -14 -6 -29 -6 -35c0 -10 1 -10 11 -5c22 11 54 47 117 133c28 37 47 62 61 76c-5 3 -9 6 -11 11c-14 23 -7 56 18 82c8 9 17 13 25 13z" />
    <glyph glyph-name="s_s" unicode="ss" horiz-adv-x="383" 
d="M284 270v0c7 0 14 -2 18 -5c8 -7 5 -44 -7 -67l-8 -18l8 -20c5 -11 11 -26 13 -33s4 -14 5 -15c0 0 25 15 54 33c87 56 88 56 95 49c4 -4 6 -8 6 -11c-1 -2 -35 -26 -75 -53l-73 -49l3 -24c7 -50 -5 -101 -32 -131c-30 -35 -88 -53 -121 -37c-9 4 -20 13 -24 20
c-21 34 -1 69 71 126l40 32l-2 17c-1 10 -6 31 -11 48c-2 5 -4 11 -5 17c-12 -7 -25 -15 -40 -24l-73 -44l3 -22c7 -45 -5 -91 -32 -118c-30 -32 -88 -47 -121 -34c-9 4 -20 12 -24 19c-21 30 -1 62 71 113l40 29l-2 15c-1 9 -6 28 -11 43c-13 38 -13 71 0 96
c6 10 14 20 19 23c6 3 14 5 21 5s14 -1 18 -4c9 -6 5 -39 -6 -61l-9 -16l9 -17c4 -10 10 -23 12 -30s4 -13 5 -13c0 -1 25 13 54 29c30 17 49 28 62 35c-3 25 0 47 9 65c6 11 14 23 19 26c6 3 13 5 21 6zM66 36v0c-3 0 -9 -4 -17 -10c-28 -20 -62 -50 -68 -60
c-16 -27 8 -40 44 -23c27 12 38 28 43 59c4 23 4 33 -2 34zM260 31v0c-3 0 -9 -3 -17 -10c-28 -22 -62 -56 -69 -68c-15 -30 9 -43 45 -25c27 14 38 32 43 66c4 26 4 37 -2 37z" />
    <glyph glyph-name="s_t" unicode="st" horiz-adv-x="360" 
d="M433 616v0c10 0 19 -8 19 -23c0 -9 -18 -65 -36 -111c-6 -17 -11 -32 -10 -34c3 -2 75 6 92 11c11 3 13 3 18 -3c11 -16 -3 -22 -74 -32l-49 -6l-7 -21c-3 -12 -18 -57 -32 -100c-44 -138 -83 -304 -83 -357c0 -22 1 -23 11 -24c16 -2 16 -18 1 -35
c-15 -16 -26 -18 -38 -5c-15 16 -21 92 -12 164c4 31 33 173 42 204c2 7 4 15 6 22c-50 -86 -92 -137 -169 -206l2 -20c7 -49 7 -82 -12 -115c-24 -40 -89 -52 -121 -37c-10 5 -20 13 -24 21c-21 34 -21 52 51 109l41 33l-2 17c-2 9 -7 30 -12 47c-13 42 -13 79 1 106
c5 11 14 23 18 26c6 4 14 6 21 6s14 -1 18 -5c9 -7 5 -43 -6 -67l-9 -18l9 -20c4 -10 10 -25 12 -33c2 -7 4 -14 5 -14c77 68 124 122 185 238c14 25 23 43 31 56l6 18l-6 -2v1s-18 -3 -38 -7c-41 -8 -49 -8 -49 4c0 11 9 15 59 24l44 9l10 29c6 16 16 39 22 52
c5 12 16 35 22 50c7 14 17 31 22 37c7 7 14 10 21 11zM52 14v0c-4 1 -9 -3 -18 -10c-28 -22 -43 -39 -49 -51c-16 -30 10 -47 44 -25c12 7 19 15 24 49c4 26 4 37 -1 37z" />
    <glyph glyph-name="o_t" unicode="ot" horiz-adv-x="370" 
d="M443 614v0c11 0 19 -8 19 -23c0 -9 -18 -65 -35 -111c-7 -17 -11 -32 -10 -34c3 -2 75 6 91 11c11 3 14 3 18 -3c12 -16 -2 -22 -74 -32l-49 -6l-6 -21c-4 -12 -18 -57 -32 -100c-45 -138 -83 -304 -83 -357c0 -22 0 -23 10 -24c16 -2 16 -18 1 -35
c-14 -16 -26 -18 -38 -5c-15 16 -20 92 -12 164c4 31 34 173 43 204c10 37 21 75 33 115c-46 -65 -90 -118 -153 -163c12 -21 7 -43 5 -65c-3 -50 -20 -74 -40 -98c-23 -27 -58 -37 -82 -22c-27 17 -37 38 -37 82c0 38 13 82 32 112c15 24 47 48 63 48v0c13 0 36 -16 36 -25
c0 -2 1 -5 3 -8c78 46 123 118 182 187c-6 -1 -20 -4 -36 -7c-41 -8 -49 -8 -49 4c0 11 9 15 59 24l44 9l10 29c6 16 16 39 22 52c6 12 16 35 23 50c6 14 16 31 22 37c6 7 13 10 20 11zM124 207l-12 -11c-34 -33 -58 -126 -38 -150c6 -7 5 -7 19 0c23 12 44 51 48 91
c2 18 1 22 -7 35c-6 8 -10 19 -10 25v10z" />
    <glyph glyph-name="a_t" unicode="at" horiz-adv-x="466" 
d="M539 618v0c11 1 19 -8 19 -22c0 -9 -18 -65 -35 -111c-7 -18 -11 -33 -10 -34c3 -3 75 6 91 11c11 3 14 3 18 -3c12 -16 -2 -22 -74 -32l-49 -7l-6 -21c-4 -11 -18 -56 -32 -100c-45 -138 -83 -304 -83 -356c0 -22 0 -23 10 -24c16 -2 16 -18 1 -36
c-14 -16 -26 -17 -38 -5c-15 17 -20 93 -12 164c4 31 34 173 43 205c2 8 8 36 7 37s-38 -61 -57 -98c-78 -149 -117 -173 -140 -182c-10 -5 -14 -4 -24 1c-20 11 -29 31 -29 63c0 14 2 36 5 49s5 23 5 24c-1 0 -15 -17 -33 -40c-45 -57 -68 -81 -79 -83
c-44 -12 -49 61 -10 141c24 49 55 79 82 79c14 0 32 -13 39 -28l7 -14l21 23c24 25 37 29 49 16c9 -11 7 -24 -11 -83c-17 -55 -29 -98 -29 -106c0 -15 44 12 80 75c26 47 163 287 162 288s-18 -2 -39 -6c-41 -9 -49 -8 -49 4c0 11 9 14 59 24l44 8l10 29c6 16 16 40 22 52
c6 13 16 35 23 50c6 15 16 32 22 38s13 10 20 10zM115 195v0c-4 0 -7 -2 -10 -5c-12 -12 -39 -67 -45 -90l-5 -21l10 12c6 6 23 27 39 45c25 30 28 34 25 43c-4 10 -9 15 -14 16z" />
    <glyph glyph-name="t_t" unicode="tt" horiz-adv-x="339" 
d="M445 604v0c9 0 18 -6 21 -15c4 -9 -2 -23 -41 -102c-24 -51 -44 -94 -44 -95s32 -2 72 -2s77 -2 82 -4c13 -4 17 -18 9 -26c-5 -5 -7 -5 -15 -2c-9 5 -47 7 -114 6l-45 -1l-12 -30c-53 -133 -97 -275 -125 -404c-9 -42 -10 -60 -2 -55c6 3 19 -7 19 -15
c0 -12 -15 -26 -28 -26c-5 0 -14 4 -19 8c-23 17 -28 70 -14 137c15 77 62 246 73 267c2 4 3 8 2 9s-21 -30 -44 -69c-68 -111 -132 -196 -158 -211c-17 -9 -32 -7 -41 7c-12 19 -5 95 16 167c17 55 58 170 67 188c5 9 4 10 -38 2c-86 -16 -96 -16 -96 -2c0 9 6 14 23 16
c11 2 91 16 118 21c7 1 13 10 26 38c16 34 17 37 12 44c-4 3 -7 10 -7 13c0 14 26 54 52 82c28 30 38 34 50 20c11 -12 6 -34 -28 -112c-17 -40 -31 -74 -31 -75c0 -3 116 4 123 7c4 2 19 29 34 59c31 65 78 143 91 151c4 3 8 4 12 4zM275 358v0c-26 0 -78 -3 -93 -6
c-13 -2 -14 -5 -32 -51c-37 -92 -81 -238 -80 -266c0 -7 2 -6 12 5c6 8 21 26 32 42c43 57 174 265 174 275c0 1 -5 1 -13 1z" />
    <glyph glyph-name="l_l" unicode="ll" horiz-adv-x="326" 
d="M464 590v0c15 1 24 -10 21 -29c-12 -71 -84 -216 -164 -327c-14 -19 -30 -42 -37 -52c-8 -11 -22 -46 -41 -104c-31 -94 -43 -144 -47 -201l-3 -35l10 5c22 10 30 -15 11 -35c-15 -16 -32 -16 -47 -1c-20 22 -29 78 -21 127c6 33 14 73 20 90c3 11 5 20 5 21
s-10 -7 -22 -19c-34 -33 -63 -55 -81 -61c-14 -5 -18 -4 -29 1c-18 8 -25 21 -28 46c-4 36 21 137 51 208c7 17 23 56 35 87c13 30 30 69 38 86c10 21 12 31 10 34c-15 14 3 51 48 98c22 24 27 28 37 27c9 -1 13 -4 17 -13c7 -14 4 -23 -37 -115
c-64 -140 -142 -348 -152 -406c-2 -11 -2 -15 3 -15c11 0 44 26 89 71l46 47l13 36c32 92 104 247 142 307c33 52 80 109 97 117c6 3 11 5 16 5zM441 518c-2 1 -10 -12 -27 -40c-24 -41 -54 -102 -76 -154c-16 -37 -9 -29 24 27c30 51 59 108 72 144c5 15 8 23 7 23z" />
    <glyph glyph-name=".notdef" horiz-adv-x="219" 
 />
    <glyph glyph-name="NULL" horiz-adv-x="0" 
 />
    <glyph glyph-name="NULL" horiz-adv-x="0" 
 />
    <glyph glyph-name="CR" unicode="&#xd;" horiz-adv-x="219" 
 />
    <glyph glyph-name="space" unicode=" " horiz-adv-x="219" 
 />
    <glyph glyph-name="dollar" unicode="$" horiz-adv-x="376" 
d="M302 583v0c9 0 15 -13 13 -29c-2 -14 -1 -17 5 -21c4 -2 12 -10 17 -18c8 -13 9 -20 9 -47c-1 -49 -22 -104 -41 -104c-12 0 -12 9 -2 47c6 19 10 42 10 50c0 17 -6 36 -11 31c-2 -2 -9 -27 -15 -55c-7 -29 -18 -77 -25 -108l-13 -55l28 -26c32 -30 50 -56 60 -88
c15 -48 6 -88 -28 -121c-23 -22 -72 -48 -105 -56l-21 -4l-4 -26c-3 -14 -7 -27 -9 -30c-5 -6 -18 -6 -20 1c-3 6 0 39 4 55c2 6 0 9 -9 14c-16 8 -38 32 -47 51c-6 12 -8 24 -8 46c0 28 4 40 14 40c11 -1 15 -9 18 -35c3 -30 13 -48 31 -59c6 -4 11 -6 11 -5
c0 4 24 117 33 155l11 47l-22 22c-25 23 -40 50 -44 77c-7 45 25 119 69 165c20 19 47 39 60 41c9 2 12 6 14 15c3 14 11 30 17 30zM262 474v0c-4 0 -32 -38 -42 -59c-14 -27 -23 -64 -20 -79c2 -14 15 -37 20 -37c2 0 13 39 24 86c11 48 19 88 18 89v0zM238 210v0
c-3 0 -6 -8 -9 -18c-2 -10 -10 -46 -17 -80c-8 -33 -15 -65 -16 -70c-2 -8 -1 -9 7 -6c5 1 18 7 30 14c41 21 62 53 55 85c-6 27 -38 75 -50 75z" />
    <glyph glyph-name="percent" unicode="%" horiz-adv-x="450" 
d="M480 575c10 0 22 -16 19 -25c-1 -3 -24 -37 -51 -75c-138 -197 -146 -209 -311 -479c-28 -46 -60 -67 -74 -49c-11 13 -4 28 54 125c122 200 171 274 254 380c20 24 45 57 57 73c30 39 41 50 52 50zM63 -53h-1h1v0zM375 158c13 -6 23 -31 23 -59c0 -20 -2 -30 -12 -50
c-21 -45 -50 -65 -82 -57c-41 10 -52 68 -24 130c15 34 45 58 67 56v0c3 0 6 0 9 -2c6 -2 10 -6 10 -9s4 -7 9 -9zM337 40c25 26 36 77 20 92c-2 3 -5 4 -7 4v0c-6 -1 -12 -10 -22 -30c-13 -26 -19 -62 -12 -71c7 -8 11 -7 21 5zM197 370c-29 9 -39 27 -39 62
c0 38 12 66 42 98c11 11 22 17 32 17v0c5 0 9 -2 13 -4c5 -4 13 -7 17 -7c14 0 22 -6 29 -23c15 -38 -1 -91 -39 -127c-17 -16 -37 -22 -55 -16zM207 446c-2 -8 -4 -18 -5 -21c-1 -7 8 -19 14 -19c2 0 10 5 17 11c21 19 32 48 30 82c-1 8 -5 13 -11 12v0c-3 0 -7 -1 -10 -3
c-12 -8 -33 -44 -35 -62z" />
    <glyph glyph-name="ampersand" unicode="&#x26;" horiz-adv-x="418" 
d="M308 568v0c39 0 76 -48 76 -100c-1 -43 -40 -110 -116 -195c-8 -9 -15 -18 -15 -20s4 -13 8 -24c5 -11 10 -24 12 -29l3 -8l13 7c20 12 53 17 69 10c21 -8 27 -20 25 -52c-2 -21 -5 -34 -16 -56c-11 -21 -14 -30 -11 -35c7 -12 33 -35 45 -38c14 -5 20 -14 15 -24
c-11 -16 -42 -7 -67 20l-19 19l-22 -22c-29 -29 -62 -50 -86 -56c-23 -5 -66 -4 -84 1c-21 6 -37 20 -48 43c-22 44 -7 107 42 180c12 18 33 46 48 64c28 33 29 37 23 63c-8 36 -12 90 -8 122c9 73 58 130 113 130zM303 535v0c-10 -1 -22 -5 -32 -12
c-19 -13 -40 -51 -44 -81c-4 -21 0 -93 5 -114l3 -11l25 26c14 15 34 39 45 54c23 30 40 64 40 79c0 16 -7 38 -17 48c-6 7 -15 11 -25 11zM226 223v0h-1c-15 -15 -63 -85 -76 -110c-25 -50 -24 -92 2 -104c20 -9 66 -5 89 7c19 11 31 21 55 46l13 14l-19 26
c-10 14 -19 27 -20 28c0 1 -7 -5 -14 -13c-8 -11 -14 -14 -19 -12c-12 4 -11 13 4 35l14 21l-13 33c-6 17 -13 29 -15 29zM335 180v0c-12 0 -28 -4 -36 -11l-9 -8l12 -18c6 -10 14 -22 17 -27c7 -12 10 -11 19 9c11 24 12 52 2 54c-1 1 -3 1 -5 1z" />
    <glyph glyph-name="quotesingle" unicode="'" horiz-adv-x="243" 
d="M150 237c-5 6 -6 17 0 20c2 2 8 12 14 23c9 18 10 24 10 63c1 38 2 45 8 49c9 7 18 7 28 0c20 -14 26 -49 15 -90c-12 -44 -57 -83 -75 -65v0z" />
    <glyph glyph-name="parenleft" unicode="(" horiz-adv-x="276" 
d="M166 -201c-12 9 -30 44 -40 77c-8 26 -9 36 -9 98c0 57 2 77 9 109c30 141 104 277 189 350c27 23 52 39 63 39c3 0 8 -4 11 -9c8 -11 5 -16 -33 -57c-17 -18 -42 -50 -56 -70c-25 -39 -67 -117 -73 -139c-2 -6 -10 -28 -17 -49c-16 -43 -32 -121 -35 -170
c-3 -42 3 -99 13 -128c13 -33 14 -47 6 -53c-10 -7 -18 -6 -28 2v0z" />
    <glyph glyph-name="A" unicode="A" 
d="M481 698v0c5 0 10 -2 16 -7c13 -14 10 -43 -31 -327c-5 -30 -15 -122 -15 -131s14 -9 40 -1c20 6 29 3 29 -10c0 -10 -20 -18 -50 -22l-21 -3l-3 -23c-1 -12 -2 -56 -3 -96c0 -61 2 -85 10 -140c5 -37 11 -74 12 -82c1 -10 4 -15 10 -18c18 -6 15 -27 -4 -34
c-14 -6 -18 -5 -29 4c-21 16 -43 81 -55 159c-6 36 -7 65 -7 136l1 89l-34 -2c-18 -1 -44 -3 -59 -5l-25 -2l-18 -35c-28 -55 -52 -96 -90 -158c-20 -32 -44 -71 -54 -88c-37 -61 -45 -69 -57 -54c-7 8 -3 20 20 56c35 57 48 129 31 169c-11 23 -32 46 -60 65
c-12 8 -23 18 -24 23c-3 10 4 22 16 27c18 7 76 15 145 19c38 3 67 6 70 9c7 7 141 277 175 354c18 40 35 82 37 93c6 23 16 35 27 35zM421 502v0c-1 -1 -2 -3 -3 -6c-2 -4 -33 -68 -70 -142c-36 -74 -66 -136 -66 -137c0 -2 60 0 87 4c10 1 16 4 16 7c0 30 16 148 32 230
c4 23 6 42 5 43v1h-1zM216 179v0c-15 0 -52 -3 -103 -9c-27 -3 -51 -5 -54 -5s0 -5 8 -11c38 -29 64 -75 65 -113c1 -12 2 -22 2 -22c1 0 11 16 22 35c25 43 68 122 68 125c0 0 -3 1 -8 0z" />
    <glyph glyph-name="B" unicode="B" horiz-adv-x="585" 
d="M441 667v0c65 0 78 -3 100 -28c20 -21 24 -35 24 -72c0 -41 -11 -83 -31 -122c-18 -34 -63 -82 -100 -106l-28 -19l20 -3c26 -3 41 -9 64 -26c24 -19 45 -50 55 -84c12 -38 12 -106 0 -150c-30 -108 -135 -215 -253 -257c-62 -22 -142 -31 -189 -20c-40 9 -74 35 -93 72
c-13 25 -12 63 2 93c14 29 65 80 95 97l22 13l6 29c16 70 56 172 116 296c18 37 32 69 32 71c0 1 -2 3 -5 3c-12 0 -11 18 1 41c29 52 90 120 107 120c4 0 11 -4 16 -9c15 -16 10 -34 -26 -112c-65 -141 -83 -182 -77 -182c10 0 71 35 103 59c47 35 88 99 104 161
c15 58 7 86 -24 95c-28 8 -82 6 -115 -3c-34 -10 -90 -37 -122 -59c-30 -20 -73 -66 -87 -94c-18 -34 -27 -66 -21 -77c7 -12 3 -21 -9 -21c-20 0 -28 24 -19 59c11 43 30 76 64 112c48 51 108 89 175 112c31 10 37 11 93 11zM392 278v0c-33 0 -55 -6 -102 -27
c-26 -12 -27 -13 -38 -38c-14 -31 -32 -79 -42 -110c-6 -20 -6 -22 0 -20c39 12 129 27 140 23c3 -1 7 -5 8 -9c4 -10 -11 -19 -39 -21c-27 -3 -108 -22 -120 -29c-6 -3 -23 -52 -23 -67c0 -9 -14 -21 -23 -21c-15 0 -23 13 -23 36c0 12 -2 21 -3 21c-6 0 -44 -32 -60 -50
c-39 -46 -42 -81 -12 -115c22 -24 45 -31 94 -29c23 1 52 5 70 9v0c94 25 187 97 238 185c34 58 46 154 25 205c-17 40 -43 57 -90 57z" />
    <glyph glyph-name="C" unicode="C" horiz-adv-x="476" 
d="M121 -189c-35 12 -59 38 -73 79c-10 29 -10 144 0 206c32 206 116 396 220 498c58 57 103 78 143 66c34 -10 50 -38 53 -92c5 -96 -47 -237 -97 -261c-12 -5 -15 -5 -26 0c-8 3 -15 9 -16 14c-6 17 14 37 27 26c12 -9 44 54 60 118c11 45 13 125 2 141
c-15 23 -51 8 -99 -42c-36 -37 -48 -54 -76 -102c-78 -135 -121 -278 -139 -462c-7 -65 -1 -111 15 -130c13 -15 35 -23 57 -21c65 7 149 84 312 286c32 40 42 47 50 32c5 -9 1 -15 -63 -96c-112 -144 -192 -223 -259 -252c-26 -12 -67 -16 -91 -8v0z" />
    <glyph glyph-name="D" unicode="D" horiz-adv-x="631" 
d="M105 -206c-72 16 -104 64 -92 135c7 39 22 69 52 101c27 28 88 71 124 87c21 9 22 10 26 29c13 62 66 232 87 278l12 25l-10 2c-9 2 -10 4 -10 18c0 12 3 20 13 33c25 32 82 90 90 92c9 3 24 -6 27 -16c3 -8 0 -15 -34 -100c-25 -61 -49 -125 -64 -169
c-8 -25 -38 -136 -41 -150l-2 -10l32 7c80 17 109 17 106 -2c-1 -7 -6 -9 -41 -15c-22 -3 -55 -10 -74 -15l-33 -8l-6 -29c-13 -55 -18 -74 -25 -91c-5 -10 -8 -21 -8 -25s-4 -10 -8 -12c-7 -3 -10 -3 -18 3c-10 7 -11 10 -12 45c0 21 1 47 3 59s4 22 3 23
c-3 3 -43 -21 -75 -45c-36 -27 -55 -48 -71 -81c-10 -21 -12 -29 -12 -54c0 -32 6 -46 27 -60c73 -51 244 9 356 124c99 103 183 311 174 435c-4 70 -30 134 -69 176c-34 36 -46 42 -93 41c-64 0 -126 -25 -188 -76c-31 -24 -73 -72 -97 -109c-19 -30 -22 -39 -16 -51
c4 -8 4 -10 -4 -16c-11 -9 -17 -8 -27 1c-12 12 -10 32 7 65c28 56 93 129 146 165c91 61 199 83 258 52c44 -23 80 -62 106 -115c46 -96 47 -195 5 -326c-17 -54 -54 -133 -82 -177c-20 -31 -66 -88 -89 -110c-50 -48 -149 -104 -218 -125c-38 -11 -105 -15 -135 -9v0z" />
    <glyph glyph-name="E" unicode="E" horiz-adv-x="528" 
d="M85 -220c-24 11 -37 27 -49 54c-23 51 -20 115 10 208c20 60 70 145 115 193c13 13 23 25 23 25c0 1 -3 1 -6 1c-11 0 -29 12 -36 25c-21 32 -2 84 60 167c22 28 36 46 80 96c15 18 84 70 118 90c64 38 106 46 125 24c12 -15 10 -29 -11 -77c-26 -57 -45 -85 -58 -85
c-14 0 -14 15 1 48c17 41 27 69 23 69c-2 0 -16 -7 -32 -15c-80 -46 -159 -122 -232 -224c-48 -67 -50 -86 -9 -82c14 2 32 8 56 20c19 9 37 17 40 17c10 0 31 -15 31 -22c0 -9 -7 -14 -36 -32c-25 -14 -79 -68 -109 -109c-76 -102 -124 -248 -103 -317c6 -23 21 -40 39 -44
c26 -7 90 21 144 62c35 26 186 178 259 262c23 26 43 47 46 47c5 0 13 -8 13 -14c0 -19 -244 -279 -309 -329c-18 -14 -52 -35 -74 -46c-36 -18 -43 -20 -70 -21c-25 -1 -31 0 -49 9v0z" />
    <glyph glyph-name="F" unicode="F" horiz-adv-x="401" 
d="M119 -132c-9 13 -9 80 -1 117c9 38 45 141 75 216c2 5 4 10 3 10s-20 -6 -43 -13c-48 -16 -54 -16 -59 -7c-8 15 7 25 73 45c35 10 45 15 49 22c5 10 15 33 41 93c10 23 30 66 44 95c15 30 25 54 23 55c-10 6 -3 28 16 56c10 15 18 28 17 29c-4 5 -213 -48 -282 -71
c-32 -11 -46 -14 -49 -11c-9 7 -6 17 7 25c36 22 222 75 340 97c16 3 24 7 32 17c14 15 28 18 40 6c8 -7 9 -7 63 0c73 10 246 15 279 8c25 -6 44 -21 44 -35c0 -12 -19 -29 -38 -35c-19 -5 -28 -2 -30 11c-1 7 2 10 13 15l14 7l-17 3c-43 6 -186 0 -275 -12
c-29 -4 -52 -8 -53 -9c0 -1 -10 -21 -20 -46c-11 -24 -31 -66 -45 -94c-13 -27 -28 -57 -32 -67c-45 -96 -57 -125 -56 -126c0 0 17 2 36 5c46 8 70 8 77 0c10 -12 0 -18 -37 -23c-19 -3 -47 -8 -63 -12c-33 -8 -29 -3 -57 -70c-31 -74 -57 -147 -76 -207l-18 -58l8 -6
c19 -13 2 -40 -24 -40c-9 0 -14 3 -19 10v0z" />
    <glyph glyph-name="G" unicode="G" horiz-adv-x="423" 
d="M120 -251c-24 8 -37 28 -37 58c0 14 1 20 6 22c10 4 18 -5 22 -23c12 -65 94 -5 144 105c22 49 43 123 55 200c2 13 5 16 -36 -39c-81 -109 -115 -137 -159 -130c-53 9 -68 85 -42 214c8 36 45 150 67 202c36 87 93 181 136 228c38 40 92 75 123 80c25 3 48 -11 62 -40
c9 -19 10 -25 10 -59c0 -44 -5 -74 -18 -118c-19 -63 -57 -138 -78 -155c-16 -12 -39 -8 -39 8c0 4 5 10 12 15c21 16 68 123 80 185c10 52 7 99 -8 113l-7 8l-17 -9c-26 -14 -71 -58 -94 -91c-59 -85 -113 -207 -152 -341c-22 -75 -29 -114 -29 -157c0 -37 2 -41 22 -36
c15 4 83 74 124 130c87 118 85 116 99 116c10 0 15 -3 21 -10l8 -11l-11 -57c-22 -120 -39 -177 -69 -241c-38 -77 -88 -140 -127 -159c-19 -9 -52 -13 -68 -8v0z" />
    <glyph glyph-name="H" unicode="H" horiz-adv-x="590" 
d="M574 664v0c15 1 27 -13 23 -33s-22 -77 -45 -140c-48 -135 -82 -233 -87 -255c-1 -8 0 -8 55 -8c38 -1 60 -2 66 -5c12 -7 11 -22 -1 -30c-9 -6 -10 -6 -19 0c-8 5 -19 6 -61 5l-51 -1l-13 -38c-16 -48 -46 -149 -65 -220c-17 -60 -23 -92 -17 -88s20 -9 20 -18
c0 -10 -20 -44 -32 -53c-11 -9 -30 -9 -38 0c-19 21 -18 66 3 162c12 55 57 219 66 243c3 7 1 7 -24 5c-46 -4 -122 -18 -127 -23c-2 -2 -11 -34 -20 -70c-16 -64 -18 -74 -37 -157c-5 -24 -9 -52 -9 -62c0 -31 -17 -41 -38 -23l-10 9l1 60c0 32 2 68 4 80
c4 30 -1 43 -24 66c-14 14 -28 23 -51 33c-16 7 -33 16 -37 19c-10 9 -6 20 8 28c12 7 125 38 139 38c7 0 7 -1 29 74c5 19 22 73 38 120c15 47 27 86 27 86c-1 0 -5 -7 -10 -15c-8 -16 -17 -20 -26 -11c-8 8 -5 19 12 49c25 42 76 120 81 124c14 9 29 -6 29 -30
c0 -21 -14 -87 -38 -169c-44 -155 -58 -205 -58 -208c0 -2 11 -2 26 1s44 7 65 9c69 8 62 5 69 30c31 111 135 377 158 404c6 8 13 11 19 12zM146 153v0c-5 0 -24 -4 -45 -9l-44 -11l22 -13c12 -8 28 -19 35 -27c8 -7 15 -12 16 -10c2 2 7 17 11 35c5 18 7 33 6 34
c0 0 0 1 -1 1z" />
    <glyph glyph-name="I" unicode="I" horiz-adv-x="238" 
d="M68 -179c-6 8 -8 15 -8 43c0 57 17 132 56 258c12 37 27 83 33 102c25 80 99 271 124 318c7 15 -8 -1 -23 -23c-15 -24 -22 -28 -30 -21c-16 13 3 47 62 109c47 49 58 57 69 50c15 -9 18 -23 11 -51c-3 -14 -12 -41 -20 -60c-32 -82 -106 -286 -127 -351
c-46 -141 -63 -198 -72 -234c-6 -23 -14 -54 -20 -71c-9 -27 -9 -30 -3 -35c9 -9 7 -21 -6 -33c-15 -15 -34 -16 -46 -1v0z" />
    <glyph glyph-name="parenright" unicode=")" horiz-adv-x="289" 
d="M218 495c11 -10 30 -44 40 -78c8 -25 9 -36 9 -97c-1 -57 -2 -77 -9 -109c-30 -141 -104 -277 -189 -350c-27 -23 -52 -39 -63 -39c-3 0 -8 4 -11 9c-8 11 -5 16 33 57c17 18 42 49 56 70c25 38 67 117 73 139c2 6 10 28 17 49c16 43 32 121 35 170c3 42 -3 98 -14 128
c-12 33 -13 47 -5 53c10 7 18 6 28 -2v0z" />
    <glyph glyph-name="J" unicode="J" horiz-adv-x="439" 
d="M70 -182c-43 15 -60 46 -60 105c0 112 94 301 178 359c27 19 41 21 54 9c10 -8 11 -11 11 -33c-1 -32 -3 -39 -14 -39c-13 0 -17 9 -15 29c3 21 -1 22 -23 3c-39 -35 -70 -79 -100 -143c-54 -115 -67 -208 -32 -237c11 -9 14 -10 32 -8c56 6 122 67 176 162
c31 55 71 144 95 211s94 284 93 286c-1 1 -4 -4 -7 -11c-11 -21 -37 -18 -31 4c2 8 33 51 77 107c8 10 18 23 22 29c8 12 25 13 35 2s7 -26 -18 -106c-12 -36 -26 -81 -32 -101c-67 -235 -105 -333 -179 -454c-38 -64 -83 -114 -127 -145c-41 -28 -103 -41 -135 -29v0z" />
    <glyph glyph-name="K" unicode="K" horiz-adv-x="485" 
d="M324 687v0c6 0 11 -3 16 -9c11 -11 11 -32 1 -60c-7 -21 -26 -69 -67 -177c-12 -30 -26 -66 -31 -78c-5 -13 -17 -43 -26 -67c-19 -46 -19 -45 -2 -55c9 -5 45 14 92 48c44 32 74 60 132 124c77 85 109 127 153 197c29 46 32 50 43 50c21 0 24 -25 6 -62
c-17 -37 -27 -50 -36 -48c-5 2 -13 -8 -37 -41c-34 -47 -87 -109 -150 -173c-51 -52 -101 -90 -149 -115c-11 -6 -20 -11 -20 -12s5 -12 11 -24s19 -46 29 -76c18 -55 40 -101 57 -116c8 -8 11 -9 24 -5c8 2 25 12 38 21c18 14 24 17 30 14c11 -7 8 -17 -10 -34
c-24 -22 -52 -35 -74 -35c-15 0 -19 2 -36 17c-24 23 -48 69 -69 134c-16 50 -29 81 -35 85c-7 4 -41 -6 -44 -13c-14 -35 -85 -225 -89 -238c-3 -9 -3 -17 -1 -18c11 -7 -1 -39 -20 -49c-12 -7 -18 -8 -27 -3v0c-15 9 -16 23 -5 85c10 63 24 116 46 178c7 21 12 39 11 41
s-6 3 -10 3c-22 0 -37 25 -30 48c5 15 27 36 40 38c4 1 15 3 24 5l15 4l22 53c12 30 26 61 30 70c4 8 7 17 7 18s8 19 16 39l16 37l-8 9c-7 9 -7 11 -2 27c8 28 45 85 98 149c7 9 14 14 21 14zM111 235l-13 -3c-13 -3 -27 -16 -24 -22c2 -2 8 -3 15 -2c9 1 13 4 17 14z" />
    <glyph glyph-name="L" unicode="L" horiz-adv-x="552" 
d="M342 658v0c47 0 40 -84 -28 -332c-34 -124 -55 -180 -95 -261c-14 -27 -26 -50 -26 -52c-1 -1 16 -4 38 -7s63 -9 91 -15c65 -12 113 -13 133 -4c25 12 36 22 37 38c2 12 4 15 13 16c13 2 23 -8 24 -26c1 -17 -27 -46 -59 -61c-29 -14 -66 -15 -127 -3
c-110 21 -180 28 -179 20c0 -9 -55 -59 -78 -71c-27 -13 -59 -18 -74 -13c-22 8 -33 30 -27 53c7 33 51 61 110 70l30 5l21 40c44 82 81 191 136 400c17 64 18 71 11 72c-24 4 -27 33 -7 71c20 39 40 60 56 60zM91 -26v0c-25 0 -72 -29 -71 -44c1 -9 6 -9 26 1
c21 9 56 43 45 43z" />
    <glyph glyph-name="M" unicode="M" horiz-adv-x="588" 
d="M474 -153c-13 11 -16 18 -24 51c-12 58 -6 147 20 267c19 92 68 239 109 327c21 46 40 86 51 109l12 24l-24 -24c-93 -90 -180 -225 -268 -418c-18 -40 -34 -70 -37 -70c-9 -2 -28 14 -31 27c-2 13 2 34 27 118c41 138 45 149 104 287c16 37 28 68 27 69
c-4 4 -63 -61 -88 -97c-74 -106 -162 -275 -212 -405c-17 -43 -39 -99 -50 -123c-22 -50 -29 -55 -49 -36c-10 10 -11 13 -11 36c0 14 4 50 8 80c14 102 41 189 103 339c14 32 15 37 10 44c-8 11 -7 20 6 48c13 27 50 78 60 82c9 3 24 -2 28 -9c10 -18 2 -49 -48 -183
c-7 -21 -19 -52 -25 -69c-26 -71 -73 -219 -72 -231c0 -2 10 24 23 56c53 138 166 342 241 435c40 49 90 87 110 82c16 -4 22 -18 19 -41c-2 -22 -7 -35 -46 -138c-35 -91 -52 -138 -50 -138c1 0 9 14 17 30c47 85 137 204 199 262c65 61 88 71 99 44c5 -11 5 -15 1 -29
c-6 -19 -31 -82 -54 -138c-68 -164 -104 -274 -135 -417c-9 -43 -25 -161 -25 -187c0 -22 1 -25 9 -31c15 -10 13 -27 -4 -36c-12 -7 -18 -6 -30 3v0z" />
    <glyph glyph-name="N" unicode="N" horiz-adv-x="467" 
d="M333 -206c-14 11 -18 31 -18 89c0 79 10 140 47 281c34 134 109 341 159 441l10 20l-14 -14c-20 -18 -76 -86 -109 -130c-66 -90 -157 -239 -212 -350c-33 -64 -85 -181 -85 -189c0 -4 -4 -11 -9 -17c-8 -7 -13 -9 -24 -8c-12 1 -16 3 -22 15c-6 11 -6 19 -5 55
c2 40 13 119 22 167c11 53 43 156 68 214c13 31 13 33 7 40c-13 14 0 49 42 109c35 49 49 63 63 63c12 0 18 -4 22 -19c3 -12 -14 -64 -52 -159c-15 -36 -32 -80 -38 -98c-18 -49 -60 -200 -79 -286c-4 -15 5 2 25 46c56 130 164 316 253 434c83 110 164 194 187 194
c10 0 24 -19 24 -31c0 -14 -18 -67 -68 -202c-66 -175 -111 -322 -141 -460c-32 -150 -34 -166 -23 -177c8 -8 7 -16 -2 -25s-19 -10 -28 -3v0z" />
    <glyph glyph-name="O" unicode="O" horiz-adv-x="494" 
d="M365 659v0h13c19 -2 24 -4 33 -14c14 -16 15 -33 2 -42c-5 -3 -11 -5 -14 -3c-7 5 -3 -3 8 -15c25 -26 51 -69 63 -104c43 -126 22 -290 -59 -457c-51 -106 -98 -156 -163 -173c-28 -7 -57 -7 -78 1c-37 13 -76 62 -95 120c-20 61 -20 156 0 256c17 85 36 141 73 218
c27 56 50 91 86 129c12 14 22 27 21 28s0 6 2 10c5 9 27 21 46 25c8 2 22 7 33 13s18 8 29 8zM348 584h-1c-8 -1 -18 -11 -41 -36c-65 -68 -114 -166 -148 -297c-38 -145 -38 -250 0 -316c17 -30 31 -40 58 -40c13 0 30 2 38 5c21 6 53 33 75 63c26 33 69 122 87 174
c25 75 31 112 31 192c0 75 -3 100 -21 149c-10 27 -35 65 -58 91c-9 10 -14 15 -20 15z" />
    <glyph glyph-name="P" unicode="P" horiz-adv-x="540" 
d="M454 660v0c12 0 23 -1 34 -3c49 -9 80 -29 114 -74c24 -34 33 -59 35 -107c3 -63 -12 -125 -45 -192c-78 -156 -202 -245 -343 -247c-33 0 -42 -2 -43 -6c-1 -3 -5 -22 -10 -43c-28 -129 -28 -128 -18 -142c8 -10 8 -11 1 -28c-7 -19 -21 -33 -33 -33c-4 0 -12 4 -18 9
c-10 9 -10 10 -12 64c-2 116 14 199 82 417c15 47 42 124 54 157c3 6 2 6 -5 -1s-10 -8 -16 -5c-4 2 -8 8 -8 13c0 13 26 53 54 82c14 14 31 34 38 43l13 16l-21 -10c-67 -34 -140 -94 -183 -151c-34 -46 -64 -128 -55 -151c8 -21 -17 -35 -32 -19c-13 15 -6 76 15 127
c19 48 66 109 117 153c95 81 203 130 285 131zM449 607v0c-28 0 -60 -5 -88 -14c-31 -10 -32 -11 -19 -14c27 -5 29 -21 10 -75c-37 -101 -50 -141 -77 -229c-53 -179 -59 -200 -54 -203c5 -4 39 0 71 8c79 18 142 66 195 145c83 127 107 241 67 319c-13 25 -39 49 -62 57
c-11 4 -26 5 -43 6z" />
    <glyph glyph-name="Q" unicode="Q" horiz-adv-x="492" 
d="M374 663v0c27 0 47 -14 47 -39c0 -15 -11 -25 -22 -21c-3 1 2 -7 11 -18c57 -67 80 -135 80 -242c0 -106 -23 -197 -77 -313c-11 -22 -26 -51 -35 -64c-8 -14 -15 -26 -15 -28c0 -4 49 -23 78 -29c13 -3 30 -5 39 -4c13 2 17 1 19 -4c3 -9 -7 -20 -23 -23
c-17 -3 -58 6 -100 22l-34 13l-17 -16c-24 -22 -42 -32 -72 -40c-36 -11 -64 -10 -88 1c-40 19 -79 74 -96 135c-8 32 -12 121 -6 169c21 168 93 342 175 420c11 11 18 21 18 26c0 12 13 24 37 31c12 3 30 10 41 15c14 6 27 9 40 9zM348 591l-23 -20
c-51 -45 -90 -105 -128 -196c-39 -94 -68 -224 -68 -306c0 -69 18 -129 50 -157c22 -19 78 -15 110 12l12 10l-17 16c-20 18 -30 35 -27 45c5 14 14 11 39 -14l25 -26l14 21c79 111 127 287 113 409c-11 84 -39 148 -86 193z" />
    <glyph glyph-name="R" unicode="R" horiz-adv-x="474" 
d="M99 -200c-8 9 -9 13 -10 51c-2 42 3 78 18 131c4 13 14 53 23 87l17 63l-9 6c-9 6 -11 24 -3 31c2 3 9 5 14 5c9 0 11 2 21 33c25 77 66 183 94 245c9 18 16 34 15 35c-3 3 -28 -30 -37 -47c-9 -19 -18 -23 -28 -14c-9 8 -9 17 3 43c8 15 23 34 55 67c40 40 46 45 58 45
c27 0 40 -28 31 -66c-3 -12 -17 -52 -32 -90c-47 -122 -96 -260 -93 -262c4 -5 44 9 76 25c64 32 104 64 142 116c63 84 86 161 70 234c-11 52 -32 70 -89 78c-54 8 -121 -13 -184 -57c-54 -38 -127 -118 -157 -171c-14 -26 -29 -74 -29 -96c0 -16 1 -19 8 -19
c9 0 13 -8 10 -21c-4 -13 -16 -19 -28 -14c-34 16 -33 87 4 164c35 72 125 167 206 216c88 54 187 63 258 25c44 -24 68 -80 69 -156c0 -49 -8 -81 -31 -131c-55 -115 -157 -196 -299 -238c-4 -1 -3 -5 4 -14c5 -7 16 -27 26 -44c27 -50 60 -105 86 -142
c39 -54 49 -64 72 -67c18 -2 23 -11 12 -23c-9 -11 -23 -9 -46 4c-40 23 -88 86 -148 194c-34 62 -44 79 -49 79c-2 0 -8 -16 -14 -36c-14 -48 -18 -61 -38 -128c-28 -88 -29 -98 -20 -98c7 0 18 -12 18 -22c0 -4 -6 -13 -14 -19c-18 -16 -38 -17 -52 -2v0z" />
    <glyph glyph-name="S" unicode="S" horiz-adv-x="416" 
d="M76 -215c-11 6 -17 20 -15 34c3 19 46 84 88 132c23 27 32 33 40 29c13 -4 11 -14 -10 -37c-43 -49 -88 -118 -82 -124c8 -8 75 21 126 55c38 25 80 68 94 95c13 27 11 43 -8 59c-19 17 -27 20 -92 41c-99 31 -128 49 -147 88c-10 23 -12 60 -3 94c18 76 90 184 190 285
c73 72 142 118 199 130c34 7 63 -7 74 -36c22 -59 -57 -211 -170 -326c-32 -33 -42 -41 -50 -40c-17 2 -13 15 15 48c91 104 154 211 161 275c3 27 -1 31 -21 24c-40 -14 -87 -50 -156 -122c-55 -57 -97 -109 -133 -167c-36 -57 -49 -88 -52 -121c-2 -24 -2 -26 10 -39
c13 -15 34 -26 104 -53c53 -21 74 -33 94 -50c61 -53 24 -140 -92 -220c-48 -33 -114 -60 -144 -60c-5 0 -14 3 -20 6v0z" />
    <glyph glyph-name="T" unicode="T" horiz-adv-x="307" 
d="M131 -218c-9 9 -9 12 -9 47c0 38 7 105 15 142c7 32 27 109 37 143c6 18 11 38 13 45c8 31 71 213 110 316c11 30 20 56 19 57c-2 2 -14 -20 -14 -27c0 -8 -14 -12 -21 -6c-9 7 -7 26 6 50l11 21l-20 -3c-101 -18 -240 -55 -269 -73c-14 -8 -24 -7 -28 5
c-9 28 69 56 278 99c39 8 71 15 71 16c1 1 12 15 25 31c18 22 27 30 34 30c13 0 25 -17 25 -35c0 -9 1 -14 3 -13c1 1 33 4 70 8c78 7 215 6 238 -2c18 -7 30 -19 30 -31c0 -13 -9 -21 -29 -27c-25 -7 -41 6 -26 21c3 4 5 7 4 8c-7 8 -175 2 -254 -8l-50 -6l-19 -55
c-53 -156 -136 -401 -137 -409c-2 -5 -17 -64 -35 -131c-18 -66 -35 -131 -37 -143c-5 -21 -4 -23 3 -30c11 -10 10 -22 -3 -37c-14 -15 -28 -16 -41 -3v0z" />
    <glyph glyph-name="U" unicode="U" horiz-adv-x="405" 
d="M310 -144c-30 17 -41 98 -28 207c6 48 7 53 23 132c11 49 11 61 1 36c-23 -57 -80 -172 -102 -206c-36 -54 -77 -91 -102 -91c-11 0 -31 16 -38 31c-3 5 -8 26 -11 47c-12 95 26 270 97 448c19 46 20 50 14 56c-4 3 -7 8 -7 10c0 7 19 39 32 56c7 9 21 27 32 41
c21 28 32 34 44 23c13 -12 13 -13 -38 -145c-58 -149 -98 -294 -114 -415c-6 -43 -8 -109 -3 -109c14 0 60 55 89 105c33 59 169 352 197 424c36 94 64 147 80 152c5 2 12 0 18 -4c11 -7 12 -20 2 -48c-60 -168 -71 -202 -83 -245c-5 -18 -14 -49 -19 -68
c-24 -81 -46 -196 -62 -318c-7 -58 -5 -77 9 -84c7 -3 11 -8 11 -15c3 -18 -23 -31 -42 -20v0z" />
    <glyph glyph-name="V" unicode="V" horiz-adv-x="321" 
d="M108 -66c-9 10 -17 44 -24 99c-8 61 0 262 15 395c3 21 6 40 7 44s-1 13 -5 21c-6 12 -6 17 -2 42c5 30 33 108 44 120c8 10 24 10 33 0c9 -9 10 -29 4 -67c-16 -107 -20 -141 -26 -215c-15 -158 -22 -390 -12 -380c2 2 24 50 48 105c72 165 195 417 225 463
c7 11 20 32 30 47c9 16 21 33 27 40c10 10 12 11 19 7c8 -4 11 -17 4 -21c-2 -1 -18 -28 -37 -59c-57 -96 -156 -299 -234 -484c-57 -134 -65 -150 -75 -159c-11 -9 -31 -8 -41 2v0z" />
    <glyph glyph-name="W" unicode="W" horiz-adv-x="580" 
d="M281 -146c-16 10 -34 39 -41 67c-12 46 -6 123 20 274c4 22 7 41 7 41c-1 1 -4 -5 -9 -13c-89 -166 -116 -211 -145 -242c-14 -14 -18 -16 -32 -16c-22 0 -37 17 -43 52c-8 45 7 151 35 246c12 41 57 166 67 186c5 10 5 12 0 17c-3 3 -6 9 -6 12c0 13 26 57 55 96
c35 46 42 50 56 36c5 -5 8 -12 8 -17c0 -4 -10 -32 -21 -60c-41 -100 -88 -228 -107 -296c-22 -75 -47 -221 -39 -229c3 -3 9 4 40 49c26 37 49 77 110 188c56 103 65 121 79 161c26 72 45 99 65 88c13 -6 15 -20 9 -43c-50 -180 -72 -283 -94 -435c-9 -59 -7 -103 6 -123
c5 -8 8 -9 18 -7c39 9 84 65 140 175c48 96 78 180 113 316c28 113 34 147 34 203v44l-10 2c-23 2 -11 34 13 34c20 0 29 -30 29 -93c-1 -61 -23 -163 -68 -313c-43 -141 -126 -306 -184 -365c-42 -41 -77 -53 -105 -35v0z" />
    <glyph glyph-name="X" unicode="X" horiz-adv-x="450" 
d="M401 -74c-22 4 -53 24 -74 47c-29 33 -60 91 -105 199c-2 5 -6 7 -7 5c-2 -2 -21 -27 -43 -56c-49 -67 -66 -85 -102 -114c-34 -27 -49 -33 -70 -27c-30 8 -24 32 6 28c13 -2 17 0 43 21c39 31 45 38 105 117l51 69l-13 41c-17 55 -29 104 -39 162c-17 94 -15 88 -27 88
c-13 0 -19 12 -19 42s11 76 20 85c14 15 36 5 47 -22c7 -16 18 -62 33 -132c28 -143 42 -198 47 -192c1 1 10 16 22 33c106 158 278 343 314 339c11 -2 21 -15 16 -22c-2 -3 -8 -6 -13 -6c-36 -4 -204 -193 -300 -337l-30 -46l7 -22c14 -44 34 -92 66 -157
c36 -74 58 -102 80 -107c12 -2 25 -13 25 -21c0 -4 -15 -19 -18 -18c-2 0 -12 2 -22 3v0z" />
    <glyph glyph-name="Y" unicode="Y" horiz-adv-x="409" 
d="M82 -149c-18 6 -28 16 -41 37c-11 17 -12 22 -9 29c8 14 22 10 35 -9c14 -20 24 -24 44 -18c15 5 53 32 79 56c49 46 101 159 151 332c6 18 18 59 28 92c21 71 28 98 27 98c0 1 -26 -43 -58 -97c-104 -176 -136 -219 -179 -233c-13 -4 -26 -6 -31 -5c-15 4 -32 23 -39 44
c-20 58 8 193 69 334c1 2 -2 5 -6 6c-15 4 -7 37 16 72c14 20 53 70 58 74c7 5 25 3 31 -3c12 -13 6 -39 -36 -154c-56 -151 -85 -255 -85 -310c0 -29 12 -28 47 5c32 30 68 83 172 258c54 89 73 125 83 150c14 35 19 41 34 41c19 0 25 -9 25 -37c0 -34 -20 -137 -41 -207
c-9 -34 -22 -78 -28 -99c-64 -225 -135 -362 -216 -415c-53 -35 -101 -50 -130 -41v0z" />
    <glyph glyph-name="Z" unicode="Z" 
d="M302 -66c-31 2 -66 9 -138 26l-71 18l-20 -12c-40 -25 -74 -29 -87 -11c-7 10 -8 31 -2 42c6 12 33 22 58 22h21l33 34c32 33 154 174 156 181c1 3 -10 4 -26 4c-30 0 -42 6 -35 20c4 6 9 7 46 7h41l38 45c21 25 55 66 76 91c48 59 74 88 129 147c24 27 43 49 42 49
c-1 1 -25 -4 -53 -11c-58 -15 -134 -30 -186 -37c-61 -8 -118 4 -138 27c-13 16 -21 52 -13 65c3 6 9 10 14 11c14 2 22 -9 24 -31c2 -23 7 -27 38 -36c16 -5 29 -6 59 -4c100 7 269 47 327 78c10 5 20 8 25 6c11 -3 20 -18 17 -29c-1 -6 -21 -29 -43 -53
c-52 -55 -132 -146 -176 -201c-19 -23 -49 -59 -66 -79l-32 -36l18 -4c19 -4 27 -12 23 -22c-2 -5 -8 -6 -34 -4l-32 1l-19 -23c-30 -38 -135 -157 -164 -187l-27 -27l11 -3c6 -2 30 -8 53 -14c85 -22 134 -26 200 -18c46 5 74 17 85 34c12 18 26 19 27 2
c3 -34 -41 -57 -127 -67c-19 -2 -39 -4 -45 -3c-5 0 -17 1 -27 2v0z" />
    <glyph glyph-name="z" unicode="z" horiz-adv-x="305" 
d="M233 236v0c3 0 6 -1 11 -4c6 -5 10 -10 10 -17c0 -18 -62 -105 -107 -151c-22 -23 -39 -42 -39 -43s4 -3 10 -5c5 -1 18 -10 28 -20l19 -17l70 68c73 72 131 124 137 124s13 -10 12 -16c-1 -3 -19 -21 -40 -40s-68 -64 -103 -100l-64 -65l4 -20c6 -26 3 -62 -10 -116
c-15 -67 -38 -114 -80 -160c-47 -51 -120 -89 -151 -77c-21 7 -25 32 -13 73c24 76 82 166 163 252c23 23 41 45 41 49c0 3 -6 12 -14 20c-19 21 -38 24 -64 10c-45 -23 -84 -31 -97 -19c-3 4 -6 7 -6 8c0 9 13 19 43 31c32 13 38 18 74 53c39 38 78 82 87 98
c4 7 3 7 -16 -2c-25 -11 -48 -12 -68 -2c-17 9 -24 21 -24 43c0 16 13 34 24 34c13 0 20 -10 20 -28c0 -16 1 -18 9 -20c14 -4 109 34 109 44c0 2 5 6 13 10c6 3 9 5 12 5zM132 -98v0c-3 0 -11 -8 -25 -22c-54 -57 -109 -136 -136 -195c-13 -27 -26 -72 -22 -76
c3 -3 26 7 44 19c70 47 116 125 136 229c6 31 8 45 3 45z" />
    <glyph glyph-name="y" unicode="y" horiz-adv-x="340" 
d="M87 229v0c6 0 12 -2 17 -8c11 -11 10 -21 -12 -63c-52 -103 -74 -175 -52 -175c10 0 60 60 124 146c42 58 68 89 74 91c11 3 23 -8 26 -25c3 -16 -4 -89 -12 -120c-3 -11 -6 -28 -8 -37l-2 -17l32 29c97 90 122 112 131 118c10 5 11 5 16 -2c7 -9 4 -14 -16 -29
c-8 -7 -51 -47 -96 -90l-80 -78l-11 -46c-27 -108 -61 -193 -98 -239c-47 -58 -105 -89 -136 -71c-28 16 -19 73 21 136c19 28 84 107 129 156l31 33l10 41c9 37 33 154 33 160c0 2 -22 -28 -49 -66c-80 -110 -109 -136 -140 -118c-42 24 -40 105 6 199c24 50 45 74 62 75z
M149 -121v0c-1 0 -2 -1 -5 -3c-4 -3 -23 -25 -42 -48c-74 -89 -99 -129 -104 -166c-2 -18 -2 -20 4 -20c4 0 16 5 26 12c46 29 83 92 111 186c3 13 8 28 9 32c2 6 2 8 1 7z" />
    <glyph glyph-name="x" unicode="x" horiz-adv-x="276" 
d="M130 -51c-15 10 -35 42 -49 79l-11 28l-12 -14c-7 -8 -21 -25 -31 -37c-20 -24 -34 -28 -36 -10c-1 7 7 20 34 52c20 24 34 44 33 48c-13 43 -23 83 -27 100c-4 21 -3 23 5 32c11 11 18 12 30 4s35 -67 36 -88c0 -6 7 0 29 21c36 35 70 58 83 57c16 -3 12 -14 -11 -31
c-25 -18 -72 -61 -83 -77c-7 -11 -7 -18 11 -86c16 -64 32 -70 75 -29c20 19 79 94 110 140c13 20 19 26 26 26c21 0 4 -34 -57 -114c-45 -59 -80 -95 -101 -103c-18 -8 -40 -7 -54 2v0z" />
    <glyph glyph-name="w" unicode="w" horiz-adv-x="367" 
d="M124 -72c-20 8 -30 31 -30 73v35l-21 -23c-26 -27 -36 -28 -57 -9c-13 13 -14 14 -15 42c-1 21 0 37 6 59c10 35 40 97 55 113c13 15 29 14 38 -1c5 -10 5 -12 -7 -41c-20 -46 -42 -108 -45 -127c-3 -16 -2 -17 4 -12c9 8 52 71 69 100c16 31 25 40 36 36
c16 -4 17 -15 6 -47c-27 -82 -37 -170 -19 -170c8 0 35 27 54 53s56 101 62 124c3 11 2 15 -4 24c-14 18 -9 50 10 71c23 25 46 -10 34 -52c-3 -10 -3 -13 6 -18c22 -14 71 -11 113 8c20 9 24 10 29 5c9 -10 2 -18 -27 -32c-41 -20 -93 -25 -126 -12c-5 2 -8 1 -9 -4
c-2 -4 -11 -25 -20 -47c-37 -84 -84 -144 -120 -152c-5 -1 -15 1 -22 4v0z" />
    <glyph glyph-name="v" unicode="v" horiz-adv-x="292" 
d="M46 -20c-13 10 -18 28 -20 80c-4 72 8 144 26 164c10 11 27 12 36 2c7 -7 7 -5 -4 -97c-7 -62 -9 -111 -6 -109c6 3 57 81 79 119c17 30 23 43 25 61c3 30 15 52 30 61c24 14 30 -7 14 -48c-5 -13 -10 -26 -10 -29c0 -11 16 -27 33 -34c17 -6 19 -6 39 0
c12 4 35 13 51 20c25 12 29 12 34 8c10 -10 2 -17 -38 -37c-57 -29 -94 -30 -124 -4l-13 11l-18 -31c-31 -54 -74 -117 -90 -131c-18 -16 -29 -18 -44 -6v0z" />
    <glyph glyph-name="u" unicode="u" horiz-adv-x="306" 
d="M146 -94c-14 9 -25 30 -28 53c-1 18 4 62 13 97l6 21l-35 -37c-56 -60 -84 -73 -105 -49c-5 6 -11 18 -12 26c-5 25 4 71 24 115c32 74 54 98 76 84c14 -9 12 -26 -4 -62c-14 -30 -48 -122 -48 -129s8 -3 30 18c37 34 101 111 114 137c15 30 32 42 46 32
c17 -11 16 -23 -7 -85c-36 -100 -49 -141 -51 -167c-3 -31 1 -34 23 -22c26 16 56 51 129 154c28 39 53 72 56 72c6 0 13 -8 13 -14s-62 -100 -97 -146c-53 -69 -95 -105 -122 -105c-5 0 -14 3 -21 7v0z" />
    <glyph glyph-name="t" unicode="t" horiz-adv-x="218" 
d="M20 -152c-18 16 -21 35 -19 96c4 79 23 173 61 292c10 33 19 60 19 61s-6 1 -14 -1c-19 -6 -38 -3 -39 5c-2 7 14 15 44 21c18 4 19 5 24 19c6 20 30 87 34 94c2 4 0 8 -5 12c-7 5 -7 7 -3 20c11 35 66 111 80 111c3 0 9 -3 15 -7c9 -8 10 -10 9 -25
c-1 -9 -16 -58 -33 -108c-18 -49 -32 -92 -32 -93c0 -2 12 -4 26 -3c25 0 26 0 26 -9s-2 -10 -23 -12c-37 -5 -38 -6 -48 -38c-4 -16 -15 -49 -23 -73s-16 -48 -17 -53s-5 -18 -8 -30c-19 -65 -26 -93 -36 -142c-13 -63 -18 -109 -13 -112c6 -3 37 27 73 70
c29 35 48 63 120 175c33 52 50 70 59 67c3 -1 6 -5 6 -8c0 -6 -105 -176 -133 -215c-61 -83 -104 -124 -131 -124c-4 0 -13 4 -19 10v0z" />
    <glyph glyph-name="s" unicode="s" horiz-adv-x="189" 
d="M90 253v0c7 0 14 -2 18 -5c8 -7 5 -43 -6 -67l-9 -18l8 -20c5 -11 11 -26 13 -33s4 -14 5 -14c0 -1 25 14 54 32c87 56 88 56 95 49c4 -4 6 -8 6 -11c-1 -2 -35 -26 -75 -53l-73 -49l3 -24c7 -50 -5 -101 -32 -131c-30 -35 -88 -53 -121 -37c-9 4 -20 13 -24 20
c-21 34 -1 69 71 126l40 32l-2 17c-1 10 -6 31 -11 48c-13 42 -13 78 0 106c6 11 14 23 19 26c6 3 14 5 21 6zM66 14v0c-3 0 -9 -3 -17 -10c-28 -22 -62 -56 -68 -68c-16 -30 8 -43 44 -25c27 14 38 32 43 66c4 26 4 37 -2 37z" />
    <glyph glyph-name="r" unicode="r" horiz-adv-x="248" 
d="M77 -109c-16 10 -24 32 -24 68c0 41 11 92 30 136c9 21 16 39 16 41s-8 5 -17 6c-32 5 -45 10 -52 23c-14 23 -7 56 18 82c14 15 31 17 43 5c9 -9 10 -19 2 -34c-2 -5 -7 -17 -9 -25c-4 -13 -3 -15 5 -18c12 -4 36 2 45 11c16 17 38 6 38 -20c0 -7 -6 -31 -14 -53
c-35 -99 -40 -117 -46 -143c-3 -15 -6 -32 -6 -38c0 -10 1 -10 11 -5c22 12 54 51 117 143c63 91 82 110 92 93c4 -4 -2 -14 -24 -46c-16 -22 -43 -61 -61 -87c-55 -83 -91 -124 -120 -139c-18 -9 -29 -9 -44 0v0z" />
    <glyph glyph-name="q" unicode="q" horiz-adv-x="308" 
d="M228 259v0c4 0 8 -1 11 -2c18 -8 18 -19 -1 -61c-27 -55 -74 -193 -67 -192c9 0 39 15 61 32c26 18 69 64 114 120c15 19 30 36 32 37c8 3 15 -3 14 -12c-2 -11 -67 -94 -103 -131c-25 -25 -67 -58 -82 -63c-2 -1 -1 -7 4 -16c24 -48 9 -148 -38 -243
c-24 -50 -56 -90 -79 -100c-15 -6 -19 -6 -31 0c-11 5 -22 27 -26 49c-1 10 -1 41 2 70c6 80 17 127 52 228c12 33 24 68 27 76c3 9 5 16 4 17c-1 0 -7 -7 -13 -18c-17 -26 -38 -45 -57 -53c-15 -5 -17 -5 -28 1c-18 10 -24 25 -24 56c0 44 10 82 35 124c15 26 50 65 66 73
c24 13 58 4 76 -20c5 -5 9 -9 9 -8c1 1 5 7 10 14c10 13 21 21 32 22zM140 211v0c-18 0 -57 -60 -74 -113c-20 -66 -19 -70 10 -32c23 28 87 114 91 121c4 6 -16 24 -27 24zM165 -27v0c-8 0 -11 -6 -29 -59c-11 -32 -23 -73 -28 -91c-9 -37 -23 -126 -23 -145
c0 -13 0 -13 9 -8c4 3 15 14 23 25c31 39 64 123 72 181c7 52 -4 97 -24 97z" />
    <glyph glyph-name="p" unicode="p" horiz-adv-x="371" 
d="M-111 -371c-21 31 -3 160 40 294c13 39 47 128 68 176c50 115 75 154 100 154c9 0 14 -2 19 -9c7 -11 5 -20 -16 -68c-49 -115 -100 -248 -132 -351c-33 -105 -26 -99 23 19c69 169 146 328 175 365c25 30 49 48 65 48c19 0 24 -3 33 -21c7 -13 9 -23 9 -52
c0 -20 -1 -44 -3 -53l-3 -17l22 12c12 7 38 23 57 34c54 33 93 52 102 49c12 -4 9 -17 -4 -24c-36 -20 -154 -90 -172 -101c-11 -7 -21 -16 -22 -19c-5 -15 -26 -43 -41 -54c-24 -18 -49 -15 -49 5c0 9 4 15 15 25c26 22 54 103 54 157v29l-13 -7
c-37 -22 -104 -150 -190 -364c-42 -105 -92 -218 -101 -227c-11 -12 -28 -13 -36 0v0z" />
    <glyph glyph-name="o" unicode="o" horiz-adv-x="247" 
d="M107 253v0c13 0 35 -16 35 -26c0 -3 4 -9 10 -13c5 -4 11 -15 14 -23c3 -12 8 -17 17 -21c23 -10 48 -10 88 -1c54 12 61 12 61 0s-9 -17 -50 -28c-32 -8 -75 -10 -97 -3c-11 3 -12 2 -14 -7c-10 -49 -21 -74 -41 -98c-22 -28 -58 -37 -82 -22c-27 16 -36 38 -36 82
c0 38 12 81 31 111c16 24 48 49 64 49zM123 208l-11 -10c-35 -33 -59 -126 -39 -150c6 -7 6 -7 19 0c23 11 44 51 49 91c2 18 1 22 -8 35c-5 8 -10 19 -10 25v9z" />
    <glyph glyph-name="n" unicode="n" horiz-adv-x="344" 
d="M23 12c-14 17 -12 77 6 133c18 61 43 100 62 100c11 0 24 -11 24 -21c0 -4 -7 -26 -14 -46c-14 -37 -33 -99 -32 -105c0 -1 3 2 8 7c34 41 112 122 126 131c26 16 42 15 52 -4c7 -13 7 -57 1 -98c-2 -16 -3 -30 -2 -32c5 -5 36 15 73 46c84 71 88 74 94 70
c12 -7 9 -16 -9 -33c-10 -9 -30 -27 -44 -40c-76 -70 -112 -90 -138 -74c-22 14 -30 50 -21 103c3 16 4 30 3 31c-3 3 -58 -56 -103 -110c-20 -23 -42 -47 -48 -53c-13 -11 -31 -13 -38 -5v0z" />
    <glyph glyph-name="m" unicode="m" horiz-adv-x="444" 
d="M22 26c-9 7 -9 10 -9 35c2 48 17 103 45 154c15 29 21 34 36 34c9 0 14 -2 19 -10c7 -11 5 -21 -15 -67c-16 -40 -30 -76 -28 -76c1 0 22 24 46 54c61 74 101 115 112 115c12 0 24 -18 24 -35c0 -7 -2 -23 -5 -35c-3 -11 -6 -22 -6 -23c0 -2 16 6 35 16
c20 10 40 19 45 19c12 0 26 -16 29 -33c1 -9 -1 -30 -6 -52c-4 -21 -7 -41 -6 -44c2 -10 27 7 95 62c71 57 82 65 90 62c18 -7 -2 -29 -101 -110c-55 -45 -74 -54 -97 -47s-28 20 -25 70c1 22 3 43 5 47c2 7 2 7 -11 1c-7 -4 -25 -15 -40 -25c-39 -27 -45 -29 -57 -22
c-12 8 -15 20 -12 52c2 25 2 25 -5 17c-3 -4 -33 -42 -67 -83c-70 -87 -74 -90 -91 -76v0z" />
    <glyph glyph-name="l" unicode="l" horiz-adv-x="214" 
d="M16 -147c-55 34 -20 210 109 557c14 37 27 71 29 75c2 5 2 9 -3 13c-3 4 -6 10 -6 14c0 21 59 102 75 102c15 0 22 -9 22 -25c0 -9 -14 -56 -32 -106c-17 -49 -34 -99 -38 -111s-24 -71 -45 -133c-37 -108 -71 -223 -83 -280c-7 -30 -8 -75 -2 -75s51 41 73 67
c23 27 72 98 121 174c37 58 48 70 57 63c3 -3 6 -7 6 -8c0 -8 -120 -195 -153 -238c-22 -29 -74 -80 -91 -88c-20 -10 -24 -10 -39 -1v0z" />
    <glyph glyph-name="k" unicode="k" horiz-adv-x="315" 
d="M-2 -86c-15 19 -8 78 23 191c25 92 97 279 144 371c7 14 9 21 6 24c-8 8 -4 21 13 43c16 23 56 63 62 63c2 0 7 -2 12 -6c17 -11 10 -40 -28 -119c-32 -67 -128 -311 -128 -324c0 -2 8 5 18 14c27 26 73 60 96 70c24 11 40 9 42 -7c2 -12 -7 -21 -45 -43
c-65 -39 -104 -72 -104 -88c0 -12 30 -37 50 -43c35 -11 51 -4 120 52c55 45 103 80 108 80c8 0 15 -10 12 -16c-1 -3 -10 -11 -20 -18c-10 -6 -42 -31 -70 -55c-87 -72 -113 -85 -155 -72c-28 9 -55 28 -66 47c-6 10 -10 14 -11 10c-3 -9 -28 -99 -33 -123
c-3 -12 -5 -26 -5 -31c1 -7 -2 -13 -11 -20c-15 -13 -20 -13 -30 0v0z" />
    <glyph glyph-name="j" unicode="j" horiz-adv-x="169" 
d="M111 429v0c2 0 5 0 7 -1c12 -3 16 -15 13 -38c-6 -38 -31 -54 -49 -30c-7 8 -8 13 -6 27c4 26 17 42 35 42zM70 245v0c7 0 14 -2 18 -7c11 -12 9 -84 -4 -146l-3 -13l17 14c72 63 134 110 143 110c3 0 8 -3 10 -6c4 -5 4 -7 -4 -16c-5 -5 -17 -15 -27 -21
c-23 -16 -95 -77 -127 -107l-26 -25l-25 -86c-28 -95 -44 -138 -70 -190c-44 -86 -88 -134 -147 -158c-28 -11 -36 -11 -56 -1c-49 24 -34 95 40 195c32 43 101 124 143 167l37 39l16 59c9 33 19 79 23 102c10 57 15 74 24 83c5 5 11 7 18 7zM-27 -59
c-1 1 -90 -102 -122 -142c-62 -77 -94 -148 -76 -170c8 -9 16 -7 42 10c24 16 44 38 64 71c16 25 44 81 57 115c11 28 37 114 35 116z" />
    <glyph glyph-name="i" unicode="i" horiz-adv-x="151" 
d="M139 380v0c4 1 8 -1 12 -3c11 -7 12 -19 3 -41c-9 -23 -30 -30 -41 -14c-9 12 -8 25 1 41c7 11 16 17 25 17zM86 244v0c20 0 26 -21 14 -48c-11 -27 -47 -136 -47 -144c0 -10 3 -9 30 7c14 9 46 37 80 71c32 31 60 57 63 57c9 0 12 -11 6 -21
c-10 -15 -103 -109 -121 -123c-26 -19 -55 -33 -69 -33c-8 0 -14 3 -20 10c-11 15 -13 25 -10 63c2 36 14 76 34 119c13 28 27 42 40 42z" />
    <glyph glyph-name="h" unicode="h" horiz-adv-x="306" 
d="M-4 -49c-6 6 -6 12 -4 42c4 62 14 106 44 198c50 148 86 232 136 317c27 46 49 70 64 70c20 0 25 -17 13 -52c-7 -22 -10 -25 -21 -26c-20 -1 -87 -159 -148 -354c-15 -46 -24 -78 -22 -78c1 0 11 16 22 36c37 62 93 125 117 131c16 5 29 -3 35 -20c5 -16 5 -17 -11 -114
c-5 -27 -8 -50 -6 -52c8 -7 46 27 135 123c27 29 40 36 45 25c3 -9 -9 -24 -70 -92c-59 -64 -91 -91 -110 -91c-15 0 -32 10 -39 24c-12 22 -8 88 9 151c2 6 -1 4 -12 -6c-22 -21 -45 -52 -75 -102c-15 -25 -29 -48 -31 -52c-2 -3 -11 -21 -21 -40s-20 -37 -22 -39
c-5 -7 -20 -6 -28 1v0z" />
    <glyph glyph-name="g" unicode="g" horiz-adv-x="311" 
d="M108 231v0c21 0 39 -12 43 -33c1 -6 4 -11 5 -11c2 0 10 6 18 13c31 29 54 30 65 4c8 -18 11 -60 7 -93l-4 -27l9 7c5 4 22 19 37 33c34 32 94 75 102 73c3 0 6 -4 6 -9c0 -6 -9 -15 -32 -32c-17 -12 -44 -35 -59 -49s-38 -35 -50 -47c-12 -11 -22 -23 -22 -27
s-6 -28 -14 -54c-33 -113 -82 -211 -134 -268c-31 -34 -91 -69 -119 -69c-6 0 -17 3 -24 7c-23 14 -22 45 5 98c31 64 86 132 176 222c27 28 51 54 53 59c11 29 29 159 22 159c-1 0 -35 -34 -75 -75c-87 -91 -105 -104 -127 -88c-39 27 26 174 91 202c7 3 14 5 21 5z
M116 188v0c-15 0 -50 -49 -68 -97c-4 -10 -7 -18 -7 -19s20 18 44 42c41 40 44 44 42 55c-2 7 -5 15 -8 18c-1 1 -2 1 -3 1zM155 -33v-1c-8 1 -124 -132 -152 -174c-23 -34 -46 -84 -46 -99c0 -12 1 -13 10 -13c6 0 16 3 22 7c32 20 66 57 96 107c19 32 75 168 70 172v1z
" />
    <glyph glyph-name="f" unicode="f" horiz-adv-x="192" 
d="M203 482v0c22 0 26 -16 13 -51c-5 -15 -9 -20 -15 -21s-12 -9 -24 -34c-19 -41 -50 -120 -74 -191c-21 -58 -21 -57 8 -61c33 -5 60 3 114 35c39 23 42 25 48 19c9 -9 3 -16 -29 -38c-49 -34 -71 -43 -109 -45c-27 -1 -34 -2 -33 -7c1 -2 4 -19 7 -37
c7 -49 -1 -96 -26 -171c-20 -58 -55 -119 -74 -129c-14 -7 -11 -7 -26 1c-36 23 -35 96 7 256c10 40 27 98 37 129c73 216 140 345 176 345zM71 93l-10 -32c-28 -86 -64 -258 -55 -258c1 0 8 11 16 24c43 77 64 166 54 231z" />
    <glyph glyph-name="e" unicode="e" horiz-adv-x="225" 
d="M111 229v0c16 0 21 -2 31 -12c11 -11 12 -12 10 -43c-3 -35 -9 -50 -26 -66c-14 -11 -30 -12 -50 -5c-16 5 -19 1 -19 -28c0 -31 4 -42 18 -42c19 0 67 26 113 62c23 18 85 73 95 85c7 9 23 9 26 0c2 -5 -10 -18 -47 -53c-85 -83 -154 -128 -194 -128c-19 0 -22 1 -34 14
c-19 20 -25 42 -23 81c5 72 51 135 100 135zM117 193v0c-2 0 -5 -1 -10 -4c-12 -6 -35 -38 -35 -49c0 -6 11 -12 27 -14c1 -1 6 3 11 8c9 10 15 43 10 55c-1 2 -1 4 -3 4z" />
    <glyph glyph-name="d" unicode="d" horiz-adv-x="242" 
d="M353 581v0c3 0 5 -1 10 -4c13 -9 12 -19 -8 -62c-9 -20 -33 -84 -52 -141c-19 -58 -40 -118 -46 -135c-28 -81 -96 -338 -96 -366c0 -4 4 -9 9 -11c14 -6 13 -19 -4 -36s-28 -19 -39 -7c-4 4 -9 14 -10 23c-4 26 10 113 34 211c14 53 23 94 22 93c-2 -2 -18 -26 -37 -53
c-41 -61 -80 -102 -95 -102c-6 0 -14 2 -19 4c-10 6 -22 33 -22 50c0 39 24 114 49 149c23 33 60 48 81 33c9 -7 24 -32 24 -42c0 -12 7 -5 24 24c29 51 36 67 64 148c49 143 77 204 102 220c4 3 7 4 9 4zM111 188v0c-6 -1 -12 -9 -22 -25c-12 -21 -36 -89 -41 -116l-3 -16
l18 17c10 10 32 37 49 61c26 37 30 44 25 48c-3 3 -9 11 -14 19c-4 8 -8 12 -12 12z" />
    <glyph glyph-name="c" unicode="c" horiz-adv-x="223" 
d="M45 14c-23 10 -36 34 -34 75c1 22 4 37 17 65c19 40 46 68 69 75c33 10 49 -5 49 -49c0 -23 -2 -29 -9 -36s-9 -8 -14 -3c-5 3 -6 9 -4 21c3 17 0 32 -6 32c-7 0 -31 -37 -42 -66c-12 -29 -16 -65 -10 -81c4 -10 35 -8 58 3s101 68 141 103c30 26 42 31 47 19
c3 -9 -41 -51 -109 -102c-54 -40 -77 -53 -105 -60c-23 -5 -30 -5 -48 4v0z" />
    <glyph glyph-name="b" unicode="b" horiz-adv-x="313" 
d="M237 585v0c10 1 16 -6 16 -18c0 -5 -20 -50 -44 -100c-40 -81 -60 -129 -93 -217c-17 -44 -42 -124 -45 -142l-3 -15l20 27c59 78 89 107 116 111c33 6 51 -19 51 -72v-33l29 15c39 19 94 42 103 42s14 -11 8 -17c-2 -3 -9 -7 -16 -10s-39 -18 -72 -33l-60 -29l-10 -26
c-24 -57 -75 -115 -115 -130c-25 -9 -52 -13 -63 -8c-13 5 -22 21 -19 33c4 17 60 66 127 112c24 15 24 16 32 45c14 52 15 82 4 82c-9 0 -28 -17 -53 -48c-35 -41 -80 -104 -87 -119c-9 -24 -31 -27 -40 -6c-4 9 -4 22 0 57c6 65 23 126 72 253c7 17 25 55 39 85
c23 46 27 56 23 62c-3 4 -4 11 -2 17c3 13 66 79 78 82h4zM156 34v0c-3 -1 -14 -9 -35 -26c-50 -39 -65 -58 -32 -42c21 11 35 23 55 48c11 14 16 21 12 20z" />
    <glyph glyph-name="a" unicode="a" horiz-adv-x="268" 
d="M105 229v0c14 0 32 -17 38 -35l5 -16l21 24c23 27 37 31 48 14c6 -9 6 -11 -8 -43c-21 -51 -55 -157 -58 -178c-3 -23 2 -25 23 -9c18 14 45 45 87 101c80 106 78 103 87 96c3 -3 5 -7 5 -10c0 -6 -93 -132 -129 -175c-42 -50 -71 -64 -95 -45c-6 5 -13 14 -16 21
c-8 19 -6 64 4 102l8 33l-28 -26c-34 -33 -49 -42 -65 -42s-27 10 -30 29c-4 22 0 43 17 76c25 51 59 83 86 83zM107 184l-10 -9c-12 -12 -32 -43 -43 -67c-15 -34 -11 -33 34 8c19 18 35 35 35 38c0 2 -3 10 -8 17z" />
    <glyph glyph-name="zero" unicode="0" horiz-adv-x="344" 
d="M201 548v0c11 0 19 -4 25 -13c6 -8 6 -10 1 -20l-6 -12l17 -6c9 -4 25 -15 35 -24c49 -47 60 -100 43 -204c-13 -82 -28 -125 -64 -186c-20 -33 -59 -72 -80 -81c-17 -7 -46 -10 -61 -6c-48 12 -72 41 -85 103c-25 120 42 343 128 423c17 16 33 25 47 26zM206 474v0
c-2 0 -4 0 -6 -1c-23 -4 -79 -129 -101 -226c-9 -39 -11 -54 -11 -107c0 -51 1 -64 7 -76c12 -28 47 -38 74 -22c24 15 55 54 74 94c23 46 36 89 44 148c11 75 3 123 -29 159c-15 18 -37 30 -52 31z" />
    <glyph glyph-name="one" unicode="1" horiz-adv-x="238" 
d="M2 -28c-6 12 6 22 28 26c12 1 18 4 18 8c0 3 10 37 23 75c13 39 33 100 44 136c12 36 35 106 51 155c17 50 32 95 34 100l2 9l-13 -10c-15 -12 -26 -11 -26 3c0 6 8 16 26 31c14 13 30 27 35 33c12 13 27 14 37 3s8 -39 -6 -86c-6 -21 -16 -56 -23 -78
c-9 -32 -113 -345 -121 -367c-2 -5 2 -6 20 -7c20 -1 23 -2 24 -9c2 -17 -3 -18 -115 -27c-31 -3 -34 -2 -38 5v0z" />
    <glyph glyph-name="two" unicode="2" horiz-adv-x="332" 
d="M94 -17c-49 13 -57 14 -72 9c-46 -15 -72 -11 -72 11c0 16 18 28 46 31c12 2 26 5 31 8c62 33 158 151 212 259c40 79 60 168 44 192c-15 23 -57 6 -104 -41c-40 -40 -68 -83 -81 -122c-9 -30 -16 -36 -27 -26c-13 10 3 63 31 106c25 36 88 97 117 111
c48 24 92 15 112 -23c31 -60 -8 -198 -87 -306c-37 -52 -99 -118 -145 -157c-13 -10 -14 -12 -8 -15c16 -8 59 -17 71 -15c16 3 38 20 35 27c-3 9 10 18 18 14c26 -14 10 -45 -33 -67c-18 -9 -47 -7 -88 4z" />
    <glyph glyph-name="three" unicode="3" horiz-adv-x="376" 
d="M71 -19c-24 11 -43 29 -52 47c-10 21 -11 43 -1 48c8 5 20 -1 20 -10c0 -13 13 -32 30 -42c16 -10 18 -10 55 -7c50 3 71 12 104 45c73 73 93 169 42 202c-7 5 -21 7 -48 8c-31 2 -39 4 -43 9c-6 10 1 17 36 40c39 24 62 45 84 79c19 29 29 57 29 85c1 45 -42 44 -90 -1
c-32 -30 -59 -69 -70 -100c-9 -27 -17 -35 -27 -27c-19 15 9 79 58 134c28 31 53 48 81 56c81 24 123 -61 77 -155c-13 -25 -51 -69 -72 -82l-10 -6l13 -6c39 -21 58 -55 58 -105c0 -34 -4 -51 -20 -85c-18 -39 -62 -89 -95 -110c-30 -19 -55 -25 -101 -25
c-35 0 -46 1 -58 8v0z" />
    <glyph glyph-name="four" unicode="4" horiz-adv-x="409" 
d="M184 -7c-4 5 -8 14 -8 21c0 13 15 73 40 161c10 35 18 65 18 67c0 5 -43 2 -105 -8c-51 -9 -73 -10 -79 -3c-10 10 -5 24 28 67c39 52 72 108 98 167c24 53 30 65 38 71c15 12 35 1 35 -20c0 -24 -35 -110 -62 -153c-14 -23 -46 -64 -63 -82l-11 -13l11 2c6 1 35 4 63 7
c29 2 54 4 56 5c3 1 8 12 11 24c12 41 40 125 48 145c24 52 45 91 53 97c12 8 27 3 33 -10c3 -9 0 -21 -20 -81c-13 -39 -30 -91 -37 -115c-7 -25 -14 -48 -15 -52c-3 -7 -1 -7 27 -4c17 1 34 3 37 4c6 2 19 -7 19 -14c0 -8 -20 -15 -54 -19c-20 -3 -39 -7 -41 -9
c-4 -5 -36 -100 -63 -194c-9 -31 -20 -59 -24 -63c-9 -9 -23 -8 -33 2v0z" />
    <glyph glyph-name="five" unicode="5" horiz-adv-x="352" 
d="M53 3c-11 4 -26 11 -34 16c-23 16 -36 49 -24 61c8 8 18 4 29 -12c14 -22 30 -27 76 -25c43 2 59 10 96 47c40 39 61 89 61 141c0 24 -1 31 -8 40c-24 33 -80 34 -148 2c-27 -12 -39 -9 -43 12c-5 27 20 114 53 185c10 21 17 41 16 44c-5 13 6 20 44 25
c51 8 161 12 172 6c8 -4 12 -21 5 -24c-1 -1 -33 -4 -70 -7c-103 -7 -95 -4 -106 -38c-4 -16 -19 -58 -31 -94c-13 -36 -23 -66 -22 -67c0 0 13 3 29 8c58 17 116 3 143 -35c17 -25 21 -40 22 -75c0 -48 -23 -110 -54 -145c-17 -20 -54 -46 -83 -61c-26 -12 -93 -15 -123 -4
v0z" />
    <glyph glyph-name="six" unicode="6" horiz-adv-x="296" 
d="M254 542v0c20 1 37 -8 41 -23c3 -12 -4 -18 -20 -17c-18 1 -31 -6 -54 -31c-43 -45 -91 -141 -113 -221l-7 -28l14 13c48 41 121 37 144 -8c9 -16 12 -57 7 -85c-10 -57 -59 -127 -102 -148c-20 -9 -47 -14 -62 -11c-4 1 -11 3 -16 4c-13 2 -39 27 -49 47
c-21 42 -22 122 -4 202c29 128 108 255 183 295c12 7 26 11 38 11zM186 234v0c-10 -1 -20 -3 -30 -7c-8 -4 -26 -19 -40 -33c-24 -24 -25 -26 -28 -49c-3 -32 0 -82 8 -99c10 -23 37 -28 65 -11c19 12 44 42 59 71c11 23 13 30 14 60c1 18 0 38 -1 43c-4 16 -24 25 -47 25z
" />
    <glyph glyph-name="seven" unicode="7" horiz-adv-x="316" 
d="M80 2c-16 7 -21 51 -11 98c4 19 36 108 50 140c1 2 -8 3 -26 2c-27 -1 -29 0 -32 7c-4 14 5 19 39 23c19 3 35 8 39 11c3 3 10 15 16 27c22 45 64 118 91 159c17 25 26 41 22 40c-25 -10 -75 -18 -120 -20c-50 -2 -53 -2 -63 6c-11 9 -13 23 -4 31c5 4 9 4 25 0
c38 -10 128 5 211 35c17 6 24 7 30 3c15 -8 11 -24 -18 -69c-30 -46 -37 -59 -81 -142l-31 -60h30c28 1 30 0 31 -8c1 -10 -7 -15 -32 -18c-49 -7 -43 -2 -66 -52c-46 -96 -62 -139 -66 -173c-5 -38 -14 -48 -34 -40v0z" />
    <glyph glyph-name="eight" unicode="8" horiz-adv-x="318" 
d="M222 556v0c2 0 4 0 6 -1c55 -9 75 -70 47 -145c-15 -41 -35 -73 -59 -94l-19 -17l17 -26c9 -14 23 -37 32 -51c25 -39 37 -70 38 -95c0 -64 -34 -120 -89 -146c-27 -12 -82 -16 -106 -7c-47 18 -73 52 -78 105c-5 62 15 116 69 181c18 21 33 40 35 42c1 2 -2 17 -7 33
c-17 53 -10 114 17 158c19 31 69 62 97 63zM224 520v0c-3 0 -7 -2 -13 -5c-20 -10 -34 -26 -44 -49c-16 -35 -10 -117 8 -122c5 -1 8 -5 8 -10c0 -12 5 -10 22 9c21 24 38 58 47 93c10 41 5 70 -16 81c-5 2 -8 3 -12 3zM132 274c-7 0 -53 -62 -69 -93
c-15 -29 -16 -35 -18 -68c-2 -40 3 -57 18 -75c24 -29 66 -34 108 -13c28 15 44 38 50 74c5 27 5 27 -7 51c-14 30 -77 124 -82 124z" />
    <glyph glyph-name="nine" unicode="9" horiz-adv-x="333" 
d="M200 553v0c21 -1 38 -13 47 -33c4 -9 8 -17 9 -17s5 6 9 14c7 15 14 19 29 15c14 -4 19 -23 27 -104c7 -70 -23 -217 -63 -306c-33 -75 -75 -125 -125 -149c-26 -13 -61 -18 -73 -11c-15 8 -26 21 -35 39c-16 31 -10 76 10 76c11 0 15 -10 13 -30c-3 -20 6 -40 20 -47
c18 -10 59 14 90 52c52 63 94 210 99 341l1 58l-7 -12c-4 -6 -31 -48 -59 -94c-28 -45 -59 -90 -69 -100c-15 -16 -19 -19 -33 -19c-22 0 -35 15 -40 47c-4 25 -3 42 6 92c15 83 64 161 115 182c10 4 20 6 29 6zM211 510v0c-10 0 -40 -39 -57 -74c-16 -34 -46 -131 -46 -149
c0 -6 9 5 43 55c16 22 38 56 50 75c19 31 22 39 22 55c0 20 -6 38 -12 38z" />
    <glyph glyph-name="asterisk" unicode="*" horiz-adv-x="323" 
d="M176 225c-7 8 -8 20 -2 39c4 14 3 14 -10 6c-11 -7 -24 -6 -30 3c-5 9 4 18 34 36c14 8 25 17 26 21s-6 15 -22 31c-25 24 -29 32 -20 41c8 8 21 5 39 -11c12 -11 18 -14 19 -11c19 58 28 73 45 73c25 0 29 -24 11 -64c-6 -14 -11 -26 -10 -27c0 -1 12 4 26 11
c13 6 30 12 38 12c12 0 13 -1 13 -9s-5 -12 -36 -28c-20 -10 -38 -20 -40 -22s7 -17 18 -34c23 -34 26 -44 14 -50c-10 -6 -16 -3 -28 16c-6 9 -15 22 -21 29l-11 13l-8 -17c-4 -9 -10 -25 -12 -36c-3 -10 -7 -21 -9 -24c-6 -7 -16 -6 -24 2v0z" />
    <glyph glyph-name="plus" unicode="+" horiz-adv-x="374" 
d="M218 51c-9 13 -13 34 -13 63l-1 25l-34 -3c-38 -3 -50 0 -50 15c0 12 9 17 39 20c45 4 42 1 42 37c0 52 10 76 31 76c17 0 22 -12 23 -59l1 -41h13c7 0 25 2 39 4c23 4 28 4 36 -2c11 -7 13 -18 5 -24c-2 -3 -23 -7 -47 -11c-23 -4 -43 -8 -44 -10s-3 -19 -3 -38
c-1 -36 -5 -53 -13 -58c-9 -6 -18 -3 -24 6v0z" />
    <glyph glyph-name="comma" unicode="," horiz-adv-x="176" 
d="M75 -61c-7 7 -6 9 9 32l15 22l-8 6c-19 15 -20 37 -3 51c14 10 26 9 38 -5c17 -21 10 -62 -18 -93c-16 -18 -25 -21 -33 -13v0z" />
    <glyph glyph-name="hyphen" unicode="-" horiz-adv-x="323" 
d="M129 141c-10 8 -11 25 -2 34c8 7 47 13 110 17c40 2 46 2 53 -5c8 -8 10 -22 2 -28c-6 -5 -30 -11 -75 -18c-51 -7 -77 -7 -88 0v0z" />
    <glyph glyph-name="period" unicode="." horiz-adv-x="192" 
d="M95 11c-13 9 -15 13 -15 29c0 21 17 38 39 38c19 0 28 -7 32 -24c4 -15 -7 -36 -23 -43c-16 -8 -21 -8 -33 0v0z" />
    <glyph glyph-name="slash" unicode="/" horiz-adv-x="340" 
d="M66 -45c-3 4 -6 12 -6 17c0 14 5 22 119 182c33 46 65 91 71 100c30 43 123 174 132 186c6 7 31 41 56 74c57 77 70 91 88 91c17 0 27 -14 23 -30c-5 -19 -52 -90 -167 -245c-26 -36 -51 -70 -56 -76c-4 -5 -20 -27 -36 -48c-16 -22 -34 -46 -41 -55
c-54 -74 -138 -185 -146 -193c-12 -11 -28 -13 -37 -3v0z" />
    <glyph glyph-name="colon" unicode=":" horiz-adv-x="312" 
d="M169 40c19 0 28 -7 32 -24c4 -15 -8 -36 -23 -43c-16 -8 -21 -8 -33 0v0c-13 9 -15 13 -15 29c0 21 17 38 39 38zM261 356c4 -15 -7 -36 -23 -43c-16 -8 -21 -8 -33 0v0c-13 9 -15 13 -15 29c0 21 17 38 40 38c18 0 27 -7 31 -24z" />
    <glyph glyph-name="semicolon" unicode=";" horiz-adv-x="304" 
d="M148 40c14 10 25 9 37 -5c18 -21 10 -62 -18 -93c-15 -18 -24 -21 -33 -13v0c-6 7 -6 9 10 32l14 22l-8 6c-19 15 -20 37 -2 51zM253 356c4 -15 -8 -36 -23 -43c-16 -8 -21 -8 -33 0v0c-13 9 -15 13 -15 29c0 21 17 38 39 38c19 0 28 -7 32 -24z" />
    <glyph glyph-name="less" unicode="&#x3c;" horiz-adv-x="434" 
d="M317 60c-17 7 -64 23 -104 35c-41 13 -79 28 -88 34c-25 19 -18 37 23 56c34 15 197 85 219 93c30 11 50 9 55 -6c8 -25 -24 -44 -153 -91c-47 -16 -85 -31 -85 -32c0 -2 35 -15 77 -31c88 -32 106 -41 106 -54c0 -17 -16 -18 -50 -4v0z" />
    <glyph glyph-name="equal" unicode="=" horiz-adv-x="412" 
d="M133 182c-15 7 -16 25 -3 33c11 7 66 13 156 17c57 2 65 2 75 -4c12 -8 14 -22 4 -28s-43 -12 -108 -18c-72 -8 -109 -8 -124 0v0zM361 129c12 -8 14 -22 4 -28s-43 -11 -108 -18c-72 -8 -109 -8 -124 0v0c-15 7 -16 25 -3 34c11 7 66 12 156 16c57 3 65 2 75 -4z" />
    <glyph glyph-name="greater" unicode="&#x3e;" horiz-adv-x="404" 
d="M187 266c17 -7 64 -24 104 -36c41 -13 79 -28 87 -34c26 -19 19 -37 -22 -56c-34 -15 -197 -85 -219 -93c-30 -11 -50 -9 -55 7c-8 24 24 43 153 90c47 16 85 31 85 32c0 2 -35 15 -77 31c-88 32 -106 41 -106 54c0 17 16 19 50 5v0z" />
    <glyph glyph-name="question" unicode="?" horiz-adv-x="334" 
d="M136 14c19 0 33 -13 33 -30c0 -35 -34 -55 -55 -32c-22 24 -8 62 22 62zM392 438c11 -65 -26 -157 -92 -234c-25 -29 -30 -33 -65 -61c-41 -32 -77 -68 -77 -75c0 -14 -16 -20 -28 -11v0c-21 17 3 61 68 123c45 43 74 82 103 137c28 55 36 92 30 137c-6 39 -14 57 -28 69
c-11 9 -15 10 -30 8c-28 -2 -60 -20 -88 -48c-29 -29 -44 -57 -51 -92c-8 -44 4 -92 23 -97c21 -4 19 -27 -3 -27c-29 0 -50 33 -53 83c-3 63 14 106 64 156c37 36 62 51 99 58c64 12 114 -37 128 -126z" />
    <glyph glyph-name="bracketleft" unicode="[" horiz-adv-x="252" 
d="M91 -116c-14 21 -14 21 22 175c29 122 47 202 60 260c11 56 34 153 43 183c6 23 20 32 63 38c43 5 55 2 55 -16c-1 -10 -2 -11 -33 -15l-32 -4l-4 -34c-7 -55 -48 -234 -106 -464c-13 -52 -24 -96 -24 -98c0 -1 15 -2 32 0c26 2 33 2 37 -3c6 -7 4 -17 -5 -21
s-73 -14 -87 -14c-10 0 -14 2 -21 13v0z" />
    <glyph glyph-name="backslash" unicode="\" horiz-adv-x="298" 
d="M203 -52c-5 6 -29 109 -45 191c-2 11 -12 62 -23 113c-47 226 -58 290 -54 306c1 6 7 14 13 17c13 7 27 0 35 -20c6 -15 24 -101 37 -175c7 -43 51 -286 63 -352c11 -60 11 -71 4 -79c-9 -10 -22 -10 -30 -1v0z" />
    <glyph glyph-name="bracketright" unicode="]" horiz-adv-x="243" 
d="M269 525c14 -21 14 -21 -22 -175c-29 -122 -47 -202 -60 -260c-12 -56 -34 -153 -43 -183c-6 -23 -20 -32 -63 -38c-43 -5 -56 -2 -55 16c1 10 2 11 33 15l32 4l4 34c7 55 48 234 106 464c13 52 24 96 24 98c0 1 -15 2 -32 0c-26 -2 -33 -2 -37 3c-6 7 -4 17 4 21
c9 4 74 14 88 14c10 0 14 -3 21 -13v0z" />
    <glyph glyph-name="asciicircum" unicode="^" horiz-adv-x="376" 
d="M135 237c-6 6 -2 18 19 56c31 57 73 121 83 124c20 5 34 -12 64 -80c31 -72 33 -81 15 -92c-20 -13 -41 17 -73 104l-8 25l-7 -9c-8 -10 -34 -54 -55 -93c-19 -34 -29 -44 -38 -35v0z" />
    <glyph glyph-name="underscore" unicode="_" horiz-adv-x="418" 
d="M33 8c-10 10 -10 20 0 28c12 12 166 28 291 31c43 1 48 0 53 -7c7 -9 7 -18 0 -27c-4 -6 -17 -8 -99 -14c-51 -4 -117 -10 -147 -13c-72 -8 -88 -7 -98 2v0z" />
    <glyph glyph-name="braceleft" unicode="{" horiz-adv-x="304" 
d="M174 -120c-17 13 -32 41 -32 63c0 17 10 48 26 85c26 57 24 65 -16 83c-44 20 -42 34 9 55c63 26 96 71 131 178c17 52 43 110 59 131c26 34 61 44 77 23c13 -19 0 -43 -17 -29c-6 7 -7 6 -16 -6c-13 -16 -30 -60 -47 -119c-16 -53 -31 -93 -45 -117
c-17 -29 -51 -64 -77 -79l-25 -15l16 -15l16 -14v-31c0 -28 -1 -32 -22 -76c-26 -53 -31 -76 -20 -89c4 -5 11 -9 16 -10c12 -3 16 -6 16 -13c0 -19 -26 -22 -49 -5v0z" />
    <glyph glyph-name="bar" unicode="|" horiz-adv-x="244" 
d="M147 -79c-7 10 -7 29 -6 318c1 300 2 354 9 367c10 18 36 15 41 -4c3 -12 3 -656 -1 -670c-5 -23 -31 -30 -43 -11v0z" />
    <glyph glyph-name="braceright" unicode="}" horiz-adv-x="344" 
d="M268 448c17 -12 31 -41 31 -62c0 -18 -9 -48 -25 -85c-26 -57 -24 -65 16 -83c44 -20 42 -34 -9 -55c-63 -26 -96 -71 -131 -179c-17 -51 -43 -109 -59 -131c-26 -33 -61 -43 -77 -22c-14 18 0 43 16 28c7 -6 8 -6 17 7c13 16 30 60 47 119c16 52 31 92 45 117
c16 29 50 63 77 79l25 15l-16 14l-16 15v30c0 29 1 32 22 76c26 53 31 77 20 90c-4 4 -11 9 -16 10c-12 2 -16 5 -16 13c0 19 25 21 48 4h1z" />
    <glyph glyph-name="asciitilde" unicode="~" horiz-adv-x="351" 
d="M232 90c-17 8 -36 30 -53 59c-6 11 -12 19 -14 19c-5 0 -25 -27 -36 -49c-9 -17 -12 -21 -19 -20c-22 3 -3 57 30 88c24 22 39 21 63 -3c10 -10 24 -26 32 -36s18 -19 22 -19c18 0 38 30 40 59c1 21 11 28 22 14c17 -20 -1 -80 -31 -104c-19 -14 -37 -17 -56 -8v0z" />
    <glyph glyph-name="at" unicode="@" horiz-adv-x="575" 
d="M407 518v0c28 0 51 -6 81 -21c51 -24 82 -68 93 -133c10 -62 -4 -136 -39 -204c-47 -92 -144 -126 -177 -62c-7 13 -8 23 -8 57c0 23 0 41 -1 41c0 0 -16 -21 -35 -48c-38 -50 -52 -62 -72 -57c-16 4 -22 18 -22 49c2 70 63 185 108 203c27 11 48 -2 53 -32
c1 -8 3 -15 4 -15s6 4 10 10c4 5 15 14 25 19c14 9 18 10 26 6c16 -7 15 -16 -7 -63c-26 -52 -33 -72 -38 -111c-8 -50 6 -63 45 -43c37 18 68 64 87 130c7 25 9 40 9 81v50l-15 29c-9 19 -20 35 -31 44c-46 41 -123 47 -177 15c-23 -13 -80 -68 -98 -94
c-58 -86 -81 -190 -61 -283c13 -63 33 -94 75 -115c19 -9 24 -10 54 -8c41 2 69 13 97 40c16 15 20 17 25 13c10 -8 7 -17 -9 -36c-34 -38 -111 -61 -164 -49c-40 10 -85 45 -104 83c-64 127 -26 310 88 420c55 52 96 75 148 82c11 1 21 2 30 2zM354 307v0s-1 0 -2 -1
c-12 -8 -77 -148 -68 -148c0 0 16 19 36 43c19 24 36 48 39 54c7 20 4 51 -5 52z" />
    <glyph glyph-name="grave" unicode="`" horiz-adv-x="254" 
d="M185 262c-41 23 -70 47 -71 58c-3 28 21 35 52 14c24 -16 66 -59 66 -66c0 -11 -7 -22 -14 -21c-4 0 -18 7 -33 15v0z" />
    <glyph glyph-name="divide" unicode="&#xf7;" horiz-adv-x="359" 
d="M199 67c19 0 28 -7 32 -24c4 -15 -8 -36 -23 -43c-16 -8 -21 -8 -33 0v0c-13 9 -15 13 -15 29c0 21 17 38 39 38zM263 226c4 -15 -7 -36 -23 -43c-16 -8 -21 -8 -33 0v0c-13 9 -15 13 -15 29c0 21 17 38 40 38c18 0 27 -7 31 -24zM120 106c13 -6 44 -6 104 0
c53 7 81 12 88 16c10 6 7 18 -2 26c-8 6 -15 6 -63 4c-74 -3 -120 -9 -129 -15c-11 -8 -10 -24 2 -31z" />
    <glyph glyph-name="Euro" unicode="&#x20ac;" horiz-adv-x="378" 
d="M222 -49c-15 4 -37 21 -50 39c-20 27 -30 64 -32 117c-1 34 -3 45 -7 45c-6 0 -13 13 -10 18c2 2 7 6 11 9c8 4 9 7 9 27v23l-18 1c-20 1 -29 10 -22 21c3 5 11 7 25 9l21 2l10 42c29 122 73 188 133 202c17 4 22 3 38 -2c33 -13 66 -52 55 -66c-7 -9 -17 -7 -29 6
c-22 24 -45 26 -66 7c-15 -14 -38 -51 -47 -75c-8 -21 -31 -103 -31 -110c0 -4 72 1 89 5c22 7 31 -16 10 -26c-6 -3 -31 -7 -57 -9c-51 -5 -49 -4 -50 -39c0 -21 0 -20 38 -14c21 4 25 4 30 -1c14 -14 -10 -27 -58 -31l-12 -1l1 -42c0 -71 15 -108 47 -117
c19 -6 34 -1 57 20c19 18 33 19 35 3c1 -13 -27 -42 -54 -55c-19 -10 -45 -13 -66 -8v0z" />
    <glyph glyph-name="plusminus" unicode="&#xb1;" horiz-adv-x="406" 
d="M218 78c-9 12 -13 32 -13 60l-1 25l-33 -3c-36 -3 -48 0 -48 14c0 12 9 17 38 20c43 3 40 0 40 35c0 51 10 74 30 74c17 0 21 -12 22 -57l1 -40h13c7 0 24 2 38 4c22 4 27 4 34 -2c11 -7 13 -17 5 -23c-2 -3 -22 -7 -45 -11c-22 -4 -42 -8 -43 -9c-1 -2 -3 -19 -3 -37
c-1 -35 -4 -51 -12 -56c-9 -6 -18 -3 -23 6zM116 0c-7 9 -7 18 0 26c8 11 119 25 208 28c31 1 34 0 38 -6c5 -9 5 -17 0 -25c-3 -5 -12 -7 -71 -13c-37 -3 -83 -9 -105 -12c-51 -7 -63 -6 -70 2z" />
    <glyph glyph-name="copyright" unicode="&#xa9;" horiz-adv-x="542" 
d="M494 371c47 -71 50 -181 7 -273c-33 -73 -91 -131 -154 -155c-24 -9 -78 -13 -99 -8c-59 16 -106 62 -127 129c-9 27 -10 37 -11 81c0 41 2 55 9 80c29 103 95 180 179 210c17 7 31 9 58 8v0c33 0 38 -1 65 -13c36 -18 56 -34 73 -59zM351 -15c88 38 148 140 148 248
c0 62 -15 105 -48 139c-26 26 -36 30 -78 30v0c-35 0 -39 -1 -67 -15c-79 -39 -135 -134 -140 -234c-2 -48 3 -74 19 -109c14 -29 43 -56 68 -64s74 -6 98 5zM294 330c35 35 60 40 86 18c14 -12 26 -44 19 -56c-5 -11 -18 -9 -25 4c-4 7 -9 13 -12 14
c-25 9 -78 -94 -84 -162c-3 -40 2 -57 20 -66c13 -6 14 -6 23 4c6 5 20 21 31 37c22 28 28 32 36 21c5 -5 4 -8 -3 -22c-15 -28 -42 -63 -56 -71c-14 -9 -29 -10 -51 -2v0c-22 8 -42 31 -50 58c-18 64 13 170 66 223z" />
    <glyph glyph-name="germandbls" unicode="&#xdf;" horiz-adv-x="468" 
d="M87 -73c-12 12 -9 39 18 182c25 132 47 213 83 305c31 79 72 137 110 155c31 15 52 17 72 7c43 -21 72 -63 75 -108c3 -46 -15 -78 -74 -130c-45 -39 -42 -58 13 -102c33 -26 45 -45 50 -80c3 -21 3 -31 -2 -48c-11 -44 -43 -83 -86 -105c-21 -11 -29 -13 -52 -13
c-43 1 -66 14 -86 50c-10 18 -9 27 3 35c9 6 9 6 39 -27c13 -15 39 -14 64 2c48 32 72 74 65 113c-2 10 -11 22 -34 45c-38 40 -50 62 -47 89c2 29 9 40 47 74c53 48 67 74 58 114c-3 15 -8 23 -22 38c-16 16 -20 18 -34 18c-32 0 -55 -22 -83 -79
c-35 -72 -77 -224 -102 -374c-8 -44 -35 -151 -41 -160c-7 -12 -24 -12 -34 -1v0z" />
    <glyph glyph-name="guillemotright" unicode="&#xbb;" horiz-adv-x="444" 
d="M278 196c16 -19 12 -37 -14 -56c-21 -15 -124 -85 -138 -93c-19 -11 -32 -9 -35 7c-5 24 15 43 97 90c29 16 53 31 53 32c0 2 -22 15 -48 31c-56 32 -67 41 -67 54c0 17 10 19 32 5v0c10 -7 40 -24 65 -36c26 -13 50 -28 55 -34zM414 196c16 -19 12 -37 -14 -56
c-21 -15 -125 -85 -138 -93c-19 -11 -32 -9 -35 7c-5 24 15 43 97 90c29 16 53 31 53 32c0 2 -22 15 -48 31c-56 32 -67 41 -67 54c0 17 10 19 31 5v0c11 -7 41 -24 66 -36c26 -13 50 -28 55 -34z" />
    <glyph glyph-name="guillemotleft" unicode="&#xab;" horiz-adv-x="466" 
d="M207 118c56 -32 67 -41 67 -54c0 -17 -10 -18 -31 -4v0c-11 7 -41 23 -66 35c-26 13 -50 28 -55 34c-16 19 -12 37 14 56c21 15 125 85 138 93c19 11 32 9 35 -6c5 -25 -15 -44 -97 -91c-29 -16 -53 -31 -53 -32c0 -2 22 -15 48 -31zM445 272c5 -25 -15 -44 -97 -91
c-29 -16 -53 -31 -53 -32c0 -2 21 -15 48 -31c56 -32 67 -41 67 -54c0 -17 -10 -18 -32 -4v0c-10 7 -40 23 -65 35c-26 13 -50 28 -55 34c-16 19 -12 37 14 56c21 15 124 85 138 93c19 11 31 9 35 -6z" />
    <glyph glyph-name="registered" unicode="&#xae;" horiz-adv-x="402" 
d="M319 306c65 -29 86 -115 47 -189c-33 -62 -102 -97 -160 -82c-48 13 -78 47 -89 99c-12 59 22 132 78 167c21 12 23 14 51 14v0h13c34 0 44 -2 60 -9zM344 146c12 29 12 71 -1 94s-32 38 -55 42c-5 1 -8 2 -11 2v0c-10 0 -15 -3 -33 -13c-41 -24 -60 -46 -71 -85
c-11 -35 -7 -62 12 -87c22 -29 58 -36 95 -19c24 12 53 41 64 66zM286 177c-11 -3 -10 -8 4 -25s14 -28 0 -30c-8 -1 -14 3 -29 21l-20 22l-7 -19c-6 -18 -16 -33 -21 -32c-1 0 -5 2 -9 4c-12 7 -6 61 11 95c9 19 32 40 48 44c2 0 5 1 8 0v0c19 -1 38 -21 38 -42
c0 -14 -13 -35 -23 -38zM274 208c4 4 5 8 2 12c-3 5 -6 8 -9 7v0c-2 0 -4 -3 -5 -9s-4 -14 -5 -18c-3 -6 -2 -6 5 -3c4 3 10 7 12 11z" />
    <glyph glyph-name="currency" unicode="&#xa4;" horiz-adv-x="370" 
d="M136 313v-1c7 1 12 -7 17 -24c6 -19 7 -20 13 -15c14 12 39 22 58 22c10 0 20 -2 21 -4c1 -1 7 -4 12 -5c6 -1 18 -7 26 -12l14 -10l15 12c16 12 27 14 35 6c5 -7 1 -22 -6 -22c-2 0 -9 -5 -15 -11l-10 -11l7 -17c5 -12 7 -27 7 -55c0 -42 -5 -57 -26 -89l-11 -16l12 -29
c13 -32 14 -42 5 -46c-8 -3 -10 -3 -16 1c-2 1 -9 14 -16 28c-15 30 -14 28 -22 23c-15 -8 -41 -8 -63 -1c-19 7 -21 7 -25 1c-4 -5 -14 -28 -19 -46c-1 -3 -6 -4 -12 -4c-10 2 -11 3 -11 21c0 13 4 26 10 40l10 20l-12 24c-11 22 -12 25 -12 67c0 37 2 48 8 62l8 17l-9 24
c-11 30 -11 42 -1 47c3 2 5 3 8 3zM249 256v0c-6 0 -12 -2 -22 -8c-33 -16 -50 -48 -50 -91c0 -42 12 -68 37 -79c14 -7 13 -7 30 -2c16 5 31 21 44 48c18 40 8 97 -22 122c-7 6 -12 9 -17 10z" />
    <glyph glyph-name="section" unicode="&#xa7;" horiz-adv-x="320" 
d="M237 503v0c17 0 21 -2 32 -13c15 -14 25 -42 18 -52c-7 -11 -18 -7 -26 12c-5 9 -12 19 -15 20c-15 6 -37 -30 -37 -60c0 -21 15 -52 35 -75c26 -29 38 -54 38 -76c0 -28 -26 -93 -41 -101c-18 -11 -18 -10 -2 -32c9 -11 22 -32 28 -47c10 -21 12 -28 10 -42
c-5 -31 -33 -65 -68 -84c-21 -10 -71 -13 -93 -5c-29 11 -45 34 -45 68c-1 34 23 75 41 72c11 -2 11 -12 0 -28c-13 -19 -15 -33 -10 -52c6 -25 33 -33 71 -23c31 9 63 40 63 61c0 12 -12 31 -42 64c-14 16 -31 38 -38 49c-33 54 -31 137 4 177c11 12 11 12 5 31
c-13 43 -1 88 34 120c16 15 20 16 38 16zM194 306v0c-1 0 -3 -1 -4 -3c-8 -12 -12 -37 -10 -60s19 -70 25 -70c2 0 7 4 11 8c17 19 22 69 9 90c-4 6 -13 17 -19 25c-6 7 -10 10 -12 10z" />
    <glyph glyph-name="cent" unicode="&#xa2;" horiz-adv-x="352" 
d="M273 469v0c1 0 3 0 5 -1c10 -5 10 -13 2 -49l-7 -28l11 -8c25 -20 40 -68 35 -114c-2 -29 -9 -40 -20 -33c-5 3 -8 12 -10 36c-3 34 -11 61 -20 69c-6 5 -5 8 -21 -69c-15 -68 -39 -220 -36 -223s44 44 73 83c21 30 29 38 36 38c22 0 8 -31 -43 -98
c-29 -38 -48 -56 -63 -61c-12 -4 -12 -4 -17 -44c-3 -21 -5 -41 -4 -44c1 -6 -11 -20 -17 -20c-3 0 -7 3 -10 6v0c-4 5 -4 16 0 55c4 38 4 49 0 50c-11 4 -31 26 -40 44c-24 49 -21 124 7 216c18 55 56 106 89 119c17 7 19 11 31 56c3 13 10 21 19 20zM220 316v0
c-14 -9 -35 -83 -41 -145c-4 -38 -2 -91 3 -85c2 2 7 31 12 65c4 34 13 85 19 114s9 52 7 51z" />
    <glyph glyph-name="yen" unicode="&#xa5;" horiz-adv-x="326" 
d="M153 -60c-11 12 -11 20 -3 66c3 19 6 37 7 40c0 4 -4 6 -11 8c-6 1 -13 5 -15 9c-3 5 -3 8 5 14c5 4 13 8 18 8c7 0 11 3 15 13c3 7 6 14 6 15c0 2 -12 2 -27 2c-31 -1 -41 5 -37 19c3 8 10 10 49 14l25 3l5 15c2 8 5 17 6 20c2 3 -3 5 -15 5c-23 0 -38 11 -51 39
c-11 21 -11 23 -11 83c0 64 4 92 22 139c10 29 20 40 36 40c10 0 15 -3 19 -10c6 -9 6 -12 -1 -38c-20 -68 -34 -160 -30 -188c1 -10 6 -21 9 -26c7 -8 7 -8 19 -2c17 9 29 26 49 72c23 52 63 129 85 161c20 30 31 38 47 32c13 -5 16 -24 5 -39c-21 -29 -111 -220 -132 -277
c-8 -24 -9 -27 -2 -27c13 0 34 -9 38 -16c7 -14 -1 -18 -30 -16c-24 2 -24 2 -28 -8c-7 -18 -5 -20 10 -19c20 2 34 -6 34 -18c0 -9 -2 -10 -21 -11c-37 -1 -38 -2 -43 -26c-2 -13 -7 -33 -10 -45c-4 -17 -4 -24 -1 -28c7 -8 0 -21 -14 -27c-16 -7 -15 -7 -27 4v0z" />
    <glyph glyph-name="sterling" unicode="&#xa3;" horiz-adv-x="316" 
d="M48 -43c-14 8 -8 22 22 50c42 40 64 86 85 181l9 41h-9c-13 0 -22 9 -21 20c1 7 5 10 18 12c10 2 17 6 18 10c2 6 11 55 23 123c8 44 15 65 35 105c26 54 60 74 88 52c13 -10 25 -35 25 -51c0 -23 -20 -28 -25 -7c-4 13 -13 28 -18 28c-1 0 -6 -6 -9 -14
c-17 -40 -27 -80 -40 -157l-14 -85l30 -2c31 -2 41 -7 41 -19c0 -10 -6 -12 -45 -12l-33 -1l-8 -32c-19 -78 -44 -139 -73 -175l-18 -23l66 -3c36 -1 69 -4 73 -7c6 -3 8 -7 7 -14l-1 -11l-81 -2c-44 -1 -88 -4 -98 -5c-36 -6 -40 -6 -47 -2v0z" />
    <glyph glyph-name="degree" unicode="&#xb0;" horiz-adv-x="312" 
d="M220 450v0c38 0 71 -26 84 -67c8 -25 3 -67 -11 -96c-24 -48 -72 -76 -112 -64c-43 13 -65 47 -65 101c0 67 49 126 104 126zM239 407v0c-7 0 -13 -2 -21 -5c-43 -23 -61 -90 -33 -126c10 -12 28 -14 46 -4c31 16 51 73 38 108c-7 18 -17 27 -30 27z" />
    <glyph glyph-name="quotedblbase" unicode="&#x201e;" horiz-adv-x="252" 
d="M105 77v0c7 0 14 -4 20 -12c18 -21 10 -62 -17 -93c-16 -18 -25 -21 -34 -13c-6 7 -6 9 10 32l14 22l-8 6c-19 15 -20 37 -2 51c6 4 12 7 17 7zM182 77v0c7 0 13 -4 20 -12c18 -21 10 -62 -18 -93c-15 -18 -24 -21 -33 -13c-6 7 -6 9 10 32l14 22l-8 6
c-19 15 -20 37 -2 51c6 4 11 7 17 7z" />
    <glyph glyph-name="quotesinglbase" unicode="&#x201a;" horiz-adv-x="196" 
d="M85 -41c-7 7 -6 9 9 32l15 22l-8 6c-19 15 -20 37 -3 51c14 10 26 9 38 -5c17 -21 10 -62 -18 -93c-16 -18 -25 -21 -33 -13v0z" />
    <glyph glyph-name="quotedblleft" unicode="&#x201c;" horiz-adv-x="277" 
d="M174 339c6 -6 6 -8 -10 -32l-14 -21l8 -7c19 -15 20 -36 2 -50c-14 -11 -25 -10 -37 4c-18 21 -10 62 18 93c10 13 18 18 24 18v0c3 -1 6 -2 9 -5zM235 279c19 -15 20 -36 2 -50c-14 -11 -26 -10 -37 4c-18 21 -10 62 17 93c11 13 19 18 25 18v0c3 -1 6 -2 9 -5
c6 -6 6 -8 -10 -32l-14 -21z" />
    <glyph glyph-name="quotedblright" unicode="&#x201d;" horiz-adv-x="312" 
d="M294 322c18 -21 10 -62 -18 -93c-15 -18 -24 -22 -33 -13c-6 6 -6 8 10 32l14 21l-8 7c-19 15 -20 36 -2 50c6 5 11 7 17 8c7 0 13 -4 20 -12zM197 334c7 0 14 -4 20 -12c18 -21 10 -62 -17 -93c-16 -18 -25 -22 -34 -13c-6 6 -6 8 10 32l14 21l-8 7c-19 15 -20 36 -2 50
c6 5 12 7 17 8v0z" />
    <glyph glyph-name="quoteleft" unicode="&#x2018;" horiz-adv-x="217" 
d="M190 337c7 -6 6 -8 -9 -32l-15 -21l8 -7c19 -15 20 -36 2 -50c-13 -11 -25 -10 -37 4c-17 21 -10 62 18 93c16 18 25 22 33 13v0z" />
    <glyph glyph-name="quoteright" unicode="&#x2019;" horiz-adv-x="250" 
d="M167 216c-7 6 -6 8 9 32l15 21l-8 7c-19 15 -20 36 -3 50c14 11 26 10 38 -4c17 -21 10 -62 -18 -93c-16 -18 -25 -22 -33 -13v0z" />
    <glyph glyph-name="dagger" unicode="&#x2020;" horiz-adv-x="298" 
d="M187 578v0c9 0 19 -6 22 -17c1 -3 1 -71 2 -159c32 2 66 4 98 5c43 1 48 0 53 -7c7 -9 7 -17 0 -27c-4 -6 -17 -8 -99 -14c-16 -1 -34 -2 -52 -4c0 -194 -1 -455 -3 -463c-6 -24 -31 -30 -43 -12c-7 10 -7 29 -6 318v153c-17 -2 -32 -3 -43 -5c-72 -7 -88 -7 -98 2v0
c-10 10 -10 20 0 29c7 7 67 15 142 21c1 126 3 158 8 168c4 8 11 11 19 12z" />
    <glyph glyph-name="circumflex" unicode="&#x2c6;" horiz-adv-x="321" 
d="M152 213c-9 9 15 57 47 94c14 15 18 18 30 18s17 -3 32 -18c23 -25 40 -58 37 -74c-2 -7 -5 -15 -7 -18c-6 -7 -26 -7 -26 0c0 3 -3 8 -6 11c-4 2 -13 16 -22 31c-8 14 -17 25 -18 24c-2 -1 -14 -17 -26 -36c-16 -26 -24 -35 -30 -35c-5 0 -10 1 -11 3v0z" />
    <glyph glyph-name="caron" unicode="&#x2c7;" horiz-adv-x="261" 
d="M143 252c-22 15 -37 31 -48 53c-9 18 -9 24 -1 32c14 14 38 1 63 -36c7 -11 14 -19 15 -19c2 0 12 13 24 29c12 17 25 33 29 37c10 9 21 7 23 -3c1 -8 -52 -92 -64 -101c-10 -8 -21 -6 -41 8v0z" />
    <glyph glyph-name="tilde" unicode="&#x2dc;" horiz-adv-x="314" 
d="M220 232c-6 6 -15 18 -20 27c-5 10 -10 17 -11 17c-5 0 -16 -13 -16 -20c0 -10 -15 -18 -23 -14c-16 8 -5 40 20 59c27 20 53 10 68 -27c12 -26 22 -21 38 15c7 15 10 18 17 17c8 -1 9 -3 8 -21c-1 -49 -49 -80 -81 -53z" />
    <glyph glyph-name="ordfeminine" unicode="&#xaa;" horiz-adv-x="300" 
d="M219 375v0c8 0 15 -3 21 -9c6 -7 10 -8 17 -6c7 3 11 2 17 -5c9 -8 9 -5 1 -109c-1 -9 -2 -18 -4 -20c-3 -6 -15 -5 -21 2c-3 4 -6 20 -7 39l-2 33l-22 -29c-31 -41 -53 -50 -71 -30c-5 6 -7 14 -7 31c2 52 45 104 78 103zM216 333v0c-4 0 -27 -38 -27 -44
c0 -2 0 -3 1 -2s9 10 18 20c14 17 17 26 8 26z" />
    <glyph glyph-name="onesuperior" unicode="&#xb9;" horiz-adv-x="239" 
d="M164 223c-5 6 -6 48 -1 70c3 13 3 14 -6 14c-24 0 -20 24 10 52c22 20 31 21 42 7c8 -10 8 -14 6 -34c-5 -49 -20 -103 -31 -110c-6 -5 -15 -4 -20 1v0z" />
    <glyph glyph-name="twosuperior" unicode="&#xb2;" horiz-adv-x="319" 
d="M176 211c-14 3 -21 9 -21 18c0 2 8 12 18 23c22 24 39 56 39 74c0 13 0 13 -8 6c-4 -4 -11 -12 -14 -18c-10 -20 -32 -8 -26 14c3 15 33 43 48 46c23 4 42 -18 42 -49c0 -19 -12 -53 -25 -69l-10 -14h23c12 0 24 -2 27 -5c7 -6 6 -17 -2 -21c-9 -5 -72 -8 -91 -5v0z" />
    <glyph glyph-name="threesuperior" unicode="&#xb3;" horiz-adv-x="302" 
d="M186 218c-12 7 -32 29 -32 35c0 18 15 20 33 3c12 -10 16 -11 29 -10c9 1 19 6 23 9c6 6 6 9 2 17c-3 5 -10 12 -15 15c-22 10 -22 18 -1 53c4 7 6 13 5 14c-5 5 -23 -7 -30 -19c-9 -15 -17 -17 -25 -5c-11 16 4 41 33 53c23 10 34 8 50 -7c13 -14 14 -31 3 -50l-8 -12
l12 -14c6 -7 13 -17 14 -23c3 -13 -1 -35 -9 -44c-18 -21 -62 -29 -84 -15v0z" />
    <glyph glyph-name="acute" unicode="&#xb4;" horiz-adv-x="281" 
d="M160 237c-7 8 -5 14 16 50c23 41 45 64 59 64c11 0 24 -12 24 -22c0 -15 -56 -80 -79 -92c-11 -6 -14 -6 -20 0v0z" />
    <glyph glyph-name="ring" unicode="&#x2da;" horiz-adv-x="241" 
d="M156 368c14 0 45 -20 55 -35c17 -29 3 -78 -28 -93c-20 -9 -45 -8 -61 3c-22 15 -29 27 -28 54c0 20 2 27 10 40c12 17 35 31 52 31zM172 328v0c-1 1 -3 0 -4 0c-14 -3 -30 -21 -33 -35c-4 -21 18 -35 37 -24c10 5 19 23 19 35c0 13 -9 24 -19 24z" />
    <glyph glyph-name="dieresis" unicode="&#xa8;" horiz-adv-x="340" 
d="M193 284c11 0 24 -12 29 -26c2 -6 0 -11 -9 -20c-14 -13 -28 -15 -39 -4c-16 16 -3 50 19 50zM289 278c15 -7 20 -19 13 -33c-9 -18 -33 -25 -45 -12v0c-7 7 -8 28 -1 36c9 13 21 16 33 9z" />
    <glyph glyph-name="cedilla" unicode="&#xb8;" horiz-adv-x="170" 
d="M55 -164c-27 6 -43 27 -29 38c5 4 7 4 15 0c24 -13 64 2 69 25c4 15 -1 18 -26 16c-39 -4 -46 7 -28 47c16 34 24 43 38 42c19 -2 21 -11 9 -36c-6 -12 -10 -22 -10 -22c0 -1 6 -1 13 -1c16 -1 31 -10 39 -25c21 -42 -38 -97 -90 -84v0z" />
    <glyph glyph-name="ae" unicode="&#xe6;" horiz-adv-x="366" 
d="M450 173c1 -4 -10 -18 -47 -53c-85 -83 -155 -128 -194 -128c-19 0 -22 1 -35 15c-5 6 -10 12 -13 19c-6 -18 -9 -32 -10 -38c-2 -16 -8 -36 -22 -42c-7 -2 -13 14 -16 21c-8 19 -6 64 3 102l9 34l-28 -27c-34 -32 -49 -42 -65 -42s-27 11 -30 29c-5 22 0 43 17 76
c25 51 58 83 86 83v0c14 0 32 -17 38 -35l5 -16l20 24c23 26 37 30 48 16c11 7 24 11 36 11c16 0 21 -2 31 -12c11 -11 11 -12 9 -43c-2 -35 -8 -50 -26 -65c-13 -11 -29 -13 -49 -6c-16 6 -20 1 -20 -28c0 -31 5 -42 18 -42c20 0 67 27 114 63c23 18 84 73 94 84
c8 9 23 9 27 0zM248 182c-13 -6 -35 -38 -35 -49c0 -6 11 -12 27 -14c1 0 6 4 10 9c9 9 16 42 11 54c-1 3 -2 4 -4 4v0c-1 0 -4 -1 -9 -4zM87 109c20 18 36 35 36 38c0 2 -4 10 -8 17l-8 13l-10 -9c-12 -11 -32 -43 -43 -67c-15 -34 -11 -33 33 8z" />
    <glyph glyph-name="oe" unicode="&#x153;" horiz-adv-x="350" 
d="M434 176c2 -4 -10 -18 -47 -53c-85 -83 -155 -128 -194 -128c-19 0 -22 1 -35 15c-7 8 -13 16 -16 26c-4 -6 -8 -12 -13 -18c-23 -27 -58 -37 -82 -22c-28 17 -37 38 -37 82c0 38 12 82 32 112c15 24 47 48 63 48v0c13 0 36 -16 36 -25c0 -4 4 -10 9 -14s11 -14 14 -22
c19 29 45 48 72 48c16 0 21 -2 31 -12c11 -11 11 -12 9 -43c-2 -35 -8 -50 -26 -65c-13 -11 -29 -13 -49 -6c-16 6 -19 1 -20 -28c0 -31 5 -42 18 -42c20 0 67 27 114 63c23 18 84 73 95 84c7 9 22 9 26 0zM232 185c-13 -6 -35 -38 -35 -49c0 -6 11 -12 27 -14c1 0 6 4 11 9
c8 9 15 42 10 54c-1 3 -2 4 -4 4v0c-1 0 -4 -1 -9 -4zM139 124c2 18 1 22 -8 35c-5 8 -10 19 -10 25v10l-11 -11c-34 -33 -58 -126 -39 -150c6 -7 6 -7 20 0c23 12 43 51 48 91z" />
    <glyph glyph-name="ogonek" unicode="&#x2db;" horiz-adv-x="234" 
d="M87 -48c8 15 23 24 39 25c7 0 13 0 13 1c0 0 -4 10 -10 22c-12 25 -10 34 9 36c14 1 22 -8 38 -42c18 -40 11 -51 -28 -47c-25 2 -30 -1 -26 -16c5 -23 45 -38 69 -25c8 4 10 4 15 0c14 -11 -2 -32 -29 -38c-52 -13 -111 42 -90 84z" />
    <glyph glyph-name="hungarumlaut" unicode="&#x2dd;" horiz-adv-x="350" 
d="M149 226c-7 8 -5 14 16 50c23 41 45 64 59 64c11 0 24 -12 24 -22c0 -15 -56 -80 -79 -92c-11 -6 -14 -6 -20 0v0zM229 226c-7 8 -5 14 16 50c23 41 45 64 59 64c11 0 24 -12 24 -22c0 -15 -56 -80 -79 -92c-11 -6 -14 -6 -20 0v0z" />
    <glyph glyph-name="dotaccent" unicode="&#x2d9;" horiz-adv-x="231" 
d="M179 313c11 0 24 -12 29 -26c2 -6 0 -11 -9 -20c-14 -13 -28 -15 -39 -4c-16 16 -3 50 19 50z" />
    <glyph glyph-name="breve" unicode="&#x2d8;" horiz-adv-x="283" 
d="M143 275c-8 9 -13 16 -23 33c-9 18 11 27 18 19c7 -10 11 -14 28 -35c25 -33 30 -17 54 8c14 16 28 31 33 34c10 8 26 -4 20 -13c-16 -21 -21 -32 -32 -42c-53 -58 -77 -26 -98 -4z" />
    <glyph glyph-name="OE" unicode="&#x152;" horiz-adv-x="831" 
d="M887 187c5 0 13 -8 13 -14c0 -19 -244 -279 -308 -329c-19 -14 -53 -35 -75 -46c-36 -18 -43 -20 -69 -21s-32 0 -50 9c-23 12 -37 27 -49 54c-9 19 -14 40 -15 64c-26 -27 -54 -44 -87 -53c-28 -7 -56 -7 -77 1c-37 13 -76 62 -95 120c-20 61 -20 156 0 256
c16 85 35 141 73 218c26 56 50 91 85 130c13 13 23 26 21 27c-1 1 0 6 3 10c5 9 26 21 46 25c7 2 22 8 32 13c12 6 19 8 30 8h12c20 -2 24 -4 34 -14c14 -16 15 -33 1 -41c-5 -4 -11 -6 -13 -4c-8 5 -4 -2 8 -15c25 -26 51 -69 63 -104c7 -21 12 -42 15 -65
c9 13 19 28 30 43c22 28 36 46 80 96c16 18 84 70 118 90c40 24 71 36 94 36v0c13 0 24 -4 31 -12c13 -15 11 -29 -11 -77c-26 -57 -45 -85 -57 -85c-15 0 -14 15 0 49c17 40 27 69 23 69c-2 0 -16 -8 -32 -16c-79 -45 -159 -122 -232 -224c-48 -67 -50 -86 -9 -82
c14 2 32 8 56 20c19 9 37 17 40 17c10 0 31 -15 31 -22c0 -9 -7 -14 -36 -32c-25 -14 -79 -68 -109 -109c-76 -102 -124 -248 -103 -317c6 -23 21 -40 39 -44c26 -7 90 21 144 62c35 26 186 178 259 262c23 26 43 47 46 47zM486 268c0 -5 -1 -11 -2 -16c7 8 13 14 13 14
c0 1 -3 1 -6 1c-1 0 -3 1 -5 1zM360 49c13 40 40 92 70 136c13 47 17 83 17 144c0 75 -4 100 -22 149c-10 27 -34 65 -57 91c-9 10 -15 16 -21 15v0c-8 -1 -18 -11 -42 -36c-65 -68 -114 -166 -148 -297c-37 -145 -37 -250 0 -316c18 -30 31 -40 59 -40c12 0 29 2 37 5
c21 6 53 33 76 63c4 5 8 12 13 19c4 20 10 42 18 67z" />
    <glyph glyph-name="AE" unicode="&#xc6;" horiz-adv-x="895" 
d="M480 701v-1v0v1zM959 190c6 0 14 -8 14 -14c0 -19 -245 -279 -309 -329c-19 -14 -52 -35 -74 -46c-37 -18 -44 -20 -70 -21c-25 -1 -32 0 -49 9c-11 5 -19 11 -26 18c-2 1 -3 2 -4 3c-21 16 -43 81 -55 159c-6 36 -7 65 -7 136l1 89l-33 -2c-19 -1 -45 -3 -59 -5l-26 -2
l-18 -35c-28 -55 -51 -96 -90 -158c-20 -32 -44 -71 -54 -88c-37 -61 -45 -69 -57 -54c-7 8 -3 20 20 56c35 57 48 129 31 169c-10 23 -32 46 -60 65c-12 8 -23 19 -24 23c-3 10 4 23 17 27c17 7 75 15 144 19c38 3 67 7 70 9c7 7 141 278 175 354c18 40 35 82 37 93
c6 23 16 35 27 35c5 1 10 -2 16 -7c13 -14 10 -43 -31 -327c-5 -30 -15 -122 -15 -131s14 -9 40 -1c20 6 29 3 29 -10c0 -10 -20 -18 -50 -22l-21 -3l-3 -23c-1 -12 -2 -56 -3 -96v-1c24 56 66 124 104 165c13 13 23 25 23 25c0 1 -2 1 -6 1c-11 0 -28 12 -36 25
c-20 33 -1 84 61 167c21 28 36 46 79 96c16 18 84 70 119 90c63 38 105 46 124 24c13 -15 11 -29 -11 -77c-26 -57 -45 -85 -57 -85c-14 0 -14 15 0 49c18 40 27 69 23 69c-2 0 -16 -8 -31 -16c-80 -45 -160 -122 -233 -224c-48 -67 -50 -86 -9 -82c15 2 33 8 56 20
c19 9 37 17 40 17c11 0 31 -15 31 -22c0 -9 -6 -14 -36 -32c-25 -14 -78 -68 -109 -109c-76 -102 -123 -248 -103 -317c7 -23 22 -40 40 -44c25 -7 90 21 144 62c35 26 185 178 259 262c22 26 43 47 45 47zM155 56c25 43 68 122 68 125c0 0 -3 1 -8 1v0
c-15 -1 -52 -4 -103 -10c-27 -3 -51 -5 -54 -5s0 -5 8 -11c38 -29 64 -75 65 -113c1 -12 2 -22 2 -22c1 0 11 16 22 35zM416 460c4 23 7 42 5 44v0h-1v0c-1 0 -2 -2 -3 -6c-2 -4 -33 -68 -70 -142c-36 -74 -66 -136 -66 -137c0 -2 60 1 87 4c10 1 16 4 16 7
c0 30 16 148 32 230z" />
    <glyph glyph-name="Oslash" unicode="&#xd8;" horiz-adv-x="494" 
d="M194 337v0v0zM492 548c17 0 27 -14 23 -30c-2 -9 -14 -31 -39 -68c28 -120 4 -269 -70 -420c-51 -106 -98 -156 -163 -173c-28 -7 -57 -7 -78 1c-26 9 -53 36 -73 71c-12 -15 -20 -26 -23 -28c-12 -11 -28 -13 -37 -3c-3 4 -6 12 -6 17c0 10 3 16 42 72
c-17 61 -17 152 2 247c17 85 36 141 73 218c27 56 50 91 86 129c12 14 22 27 21 28s0 6 2 10c5 9 27 21 46 25c8 2 22 7 33 13s18 8 29 8h13c19 -2 24 -4 33 -14c14 -16 15 -33 2 -42c-5 -3 -11 -5 -14 -3c-7 5 -3 -3 8 -15c18 -19 36 -46 50 -72c20 23 29 29 40 29z
M153 257c-19 -73 -28 -136 -28 -189c6 9 13 19 20 29l71 100l132 186c6 7 31 41 56 74c7 9 13 17 18 24c0 1 0 2 -1 3c-10 27 -35 65 -58 91c-9 10 -14 15 -20 15h-1c-8 -1 -18 -11 -41 -36c-65 -68 -114 -166 -148 -297zM442 335c0 27 0 47 -1 65c-24 -34 -55 -76 -93 -127
l-56 -76l-36 -48l-41 -55c-24 -33 -53 -73 -80 -108c5 -17 11 -32 18 -45c17 -30 31 -40 58 -40c13 0 30 2 38 5c21 6 53 33 75 63c26 33 69 122 87 174c25 75 31 112 31 192z" />
    <glyph glyph-name="oslash" unicode="&#xf8;" horiz-adv-x="247" 
d="M267 170c54 12 61 12 61 0s-9 -17 -50 -28c-32 -8 -75 -10 -97 -3c-11 3 -12 2 -14 -7c-10 -49 -21 -74 -41 -98c-22 -28 -58 -37 -82 -22c-2 2 -5 3 -7 5l-27 -36c-12 -11 -21 -18 -30 -8c-3 4 -6 12 -6 17c2 3 18 25 41 56c-5 13 -7 28 -7 48c0 38 12 81 31 111
c16 24 48 49 64 49c13 0 35 -16 35 -26c0 -2 2 -5 5 -9c19 25 37 48 52 66c11 13 40 -2 30 -15l-61 -83c3 -8 8 -13 15 -16c23 -10 48 -10 88 -1zM108 199c-17 -17 -32 -49 -40 -80c17 23 36 48 54 72c-2 3 -3 7 -3 9v9zM137 140c1 5 1 10 1 13l-72 -98l3 -6c6 -7 6 -7 19 0
c23 11 44 51 49 91z" />
    <glyph glyph-name="ordmasculine" unicode="&#xba;" horiz-adv-x="218" 
d="M174 372c4 0 7 -1 9 -3c1 -2 8 -7 15 -10c36 -15 37 -70 3 -112c-25 -31 -55 -37 -74 -17c-31 34 -17 110 24 135c8 5 17 8 23 7zM175 330c-8 0 -10 -3 -15 -15c-7 -18 -9 -58 -2 -58c2 0 9 6 15 12c12 13 20 37 18 51c-1 6 -4 9 -13 10h-3z" />
    <glyph glyph-name="Aacute" unicode="&#xc1;" 
d="M481 698v0c5 0 10 -2 16 -7c13 -14 10 -43 -31 -327c-5 -30 -15 -122 -15 -131s14 -9 40 -1c20 6 29 3 29 -10c0 -10 -20 -18 -50 -22l-21 -3l-3 -23c-1 -12 -2 -56 -3 -96c0 -61 2 -85 10 -140c5 -37 11 -74 12 -82c1 -10 4 -15 10 -18c18 -6 15 -27 -4 -34
c-14 -6 -18 -5 -29 4c-21 16 -43 81 -55 159c-6 36 -7 65 -7 136l1 89l-34 -2c-18 -1 -44 -3 -59 -5l-25 -2l-18 -35c-28 -55 -52 -96 -90 -158c-20 -32 -44 -71 -54 -88c-37 -61 -45 -69 -57 -54c-7 8 -3 20 20 56c35 57 48 129 31 169c-11 23 -32 46 -60 65
c-12 8 -23 18 -24 23c-3 10 4 22 16 27c18 7 76 15 145 19c38 3 67 6 70 9c7 7 141 277 175 354c18 40 35 82 37 93c6 23 16 35 27 35zM421 502v0c-1 -1 -2 -3 -3 -6c-2 -4 -33 -68 -70 -142c-36 -74 -66 -136 -66 -137c0 -2 60 0 87 4c10 1 16 4 16 7c0 30 16 148 32 230
c4 23 6 42 5 43v1h-1zM216 179v0c-15 0 -52 -3 -103 -9c-27 -3 -51 -5 -54 -5s0 -5 8 -11c38 -29 64 -75 65 -113c1 -12 2 -22 2 -22c1 0 11 16 22 35c25 43 68 122 68 125c0 0 -3 1 -8 0zM480 761c-7 8 -5 14 16 50c23 41 45 64 59 64c11 0 24 -12 24 -22
c0 -15 -56 -80 -79 -92c-11 -6 -14 -6 -20 0v0z" />
    <glyph glyph-name="Adieresis" unicode="&#xc4;" 
d="M481 698v0c5 0 10 -2 16 -7c13 -14 10 -43 -31 -327c-5 -30 -15 -122 -15 -131s14 -9 40 -1c20 6 29 3 29 -10c0 -10 -20 -18 -50 -22l-21 -3l-3 -23c-1 -12 -2 -56 -3 -96c0 -61 2 -85 10 -140c5 -37 11 -74 12 -82c1 -10 4 -15 10 -18c18 -6 15 -27 -4 -34
c-14 -6 -18 -5 -29 4c-21 16 -43 81 -55 159c-6 36 -7 65 -7 136l1 89l-34 -2c-18 -1 -44 -3 -59 -5l-25 -2l-18 -35c-28 -55 -52 -96 -90 -158c-20 -32 -44 -71 -54 -88c-37 -61 -45 -69 -57 -54c-7 8 -3 20 20 56c35 57 48 129 31 169c-11 23 -32 46 -60 65
c-12 8 -23 18 -24 23c-3 10 4 22 16 27c18 7 76 15 145 19c38 3 67 6 70 9c7 7 141 277 175 354c18 40 35 82 37 93c6 23 16 35 27 35zM421 502v0c-1 -1 -2 -3 -3 -6c-2 -4 -33 -68 -70 -142c-36 -74 -66 -136 -66 -137c0 -2 60 0 87 4c10 1 16 4 16 7c0 30 16 148 32 230
c4 23 6 42 5 43v1h-1zM216 179v0c-15 0 -52 -3 -103 -9c-27 -3 -51 -5 -54 -5s0 -5 8 -11c38 -29 64 -75 65 -113c1 -12 2 -22 2 -22c1 0 11 16 22 35c25 43 68 122 68 125c0 0 -3 1 -8 0zM464 790c11 0 24 -12 29 -26c2 -6 0 -11 -9 -20c-14 -13 -28 -15 -39 -4
c-16 16 -3 50 19 50zM560 784c15 -7 20 -19 13 -33c-9 -18 -33 -25 -45 -12v0c-7 7 -8 28 -1 36c9 13 21 16 33 9z" />
    <glyph glyph-name="Aogonek" unicode="&#x104;" 
d="M511 -288c14 -11 -2 -32 -29 -38c-52 -13 -111 42 -90 84c8 15 23 24 39 25c7 0 13 0 13 1c0 0 -4 10 -10 22c-2 4 -3 8 -5 11c-18 25 -35 83 -46 149c-6 36 -7 65 -7 136l1 89l-34 -2c-18 -1 -44 -3 -59 -5l-25 -2l-18 -35c-28 -55 -52 -96 -90 -158l-54 -88
c-37 -61 -45 -69 -57 -54c-7 8 -3 20 20 56c35 57 48 129 31 169c-11 23 -32 46 -60 65c-12 8 -23 18 -24 23c-3 10 4 22 16 27c18 7 76 15 145 19c38 3 67 6 70 9c7 7 141 277 175 354c18 40 35 82 37 93c6 23 16 35 27 35c5 0 10 -2 16 -7c13 -14 10 -43 -31 -327
c-5 -30 -15 -122 -15 -131s14 -9 40 -1c20 6 29 3 29 -10c0 -10 -20 -18 -50 -22l-21 -3l-3 -23c-1 -12 -2 -56 -3 -96c0 -61 2 -85 10 -140l12 -82c1 -10 4 -15 10 -18c15 -4 16 -19 6 -28c1 -3 3 -6 4 -9c18 -40 11 -51 -28 -47c-25 2 -30 -1 -26 -16c5 -23 45 -38 69 -25
c8 4 10 4 15 0zM152 53c25 43 68 122 68 125c0 0 -3 1 -8 0c-15 0 -52 -3 -103 -9c-27 -3 -51 -5 -54 -5s0 -5 8 -11c38 -29 64 -75 65 -113c1 -12 2 -22 2 -22c1 0 11 16 22 35zM413 457c4 23 6 42 5 43v1h-1l-3 -6l-70 -142c-36 -74 -66 -136 -66 -137c0 -2 60 0 87 4
c10 1 16 4 16 7c0 30 16 148 32 230z" />
    <glyph glyph-name="Aring" unicode="&#xc5;" 
d="M481 698v0c5 0 10 -2 16 -7c13 -14 10 -43 -31 -327c-5 -30 -15 -122 -15 -131s14 -9 40 -1c20 6 29 3 29 -10c0 -10 -20 -18 -50 -22l-21 -3l-3 -23c-1 -12 -2 -56 -3 -96c0 -61 2 -85 10 -140c5 -37 11 -74 12 -82c1 -10 4 -15 10 -18c18 -6 15 -27 -4 -34
c-14 -6 -18 -5 -29 4c-21 16 -43 81 -55 159c-6 36 -7 65 -7 136l1 89l-34 -2c-18 -1 -44 -3 -59 -5l-25 -2l-18 -35c-28 -55 -52 -96 -90 -158c-20 -32 -44 -71 -54 -88c-37 -61 -45 -69 -57 -54c-7 8 -3 20 20 56c35 57 48 129 31 169c-11 23 -32 46 -60 65
c-12 8 -23 18 -24 23c-3 10 4 22 16 27c18 7 76 15 145 19c38 3 67 6 70 9c7 7 141 277 175 354c18 40 35 82 37 93c6 23 16 35 27 35zM421 502v0c-1 -1 -2 -3 -3 -6c-2 -4 -33 -68 -70 -142c-36 -74 -66 -136 -66 -137c0 -2 60 0 87 4c10 1 16 4 16 7c0 30 16 148 32 230
c4 23 6 42 5 43v1h-1zM216 179v0c-15 0 -52 -3 -103 -9c-27 -3 -51 -5 -54 -5s0 -5 8 -11c38 -29 64 -75 65 -113c1 -12 2 -22 2 -22c1 0 11 16 22 35c25 43 68 122 68 125c0 0 -3 1 -8 0zM501 867c14 0 45 -20 55 -35c17 -29 3 -78 -28 -93c-20 -9 -45 -8 -61 3
c-22 15 -29 27 -28 54c0 20 2 27 10 40c12 17 35 31 52 31zM517 827v0c-1 1 -3 0 -4 0c-14 -3 -30 -21 -33 -35c-4 -21 18 -35 37 -24c10 5 19 23 19 35c0 13 -9 24 -19 24z" />
    <glyph glyph-name="Atilde" unicode="&#xc3;" 
d="M481 698v0c5 0 10 -2 16 -7c13 -14 10 -43 -31 -327c-5 -30 -15 -122 -15 -131s14 -9 40 -1c20 6 29 3 29 -10c0 -10 -20 -18 -50 -22l-21 -3l-3 -23c-1 -12 -2 -56 -3 -96c0 -61 2 -85 10 -140c5 -37 11 -74 12 -82c1 -10 4 -15 10 -18c18 -6 15 -27 -4 -34
c-14 -6 -18 -5 -29 4c-21 16 -43 81 -55 159c-6 36 -7 65 -7 136l1 89l-34 -2c-18 -1 -44 -3 -59 -5l-25 -2l-18 -35c-28 -55 -52 -96 -90 -158c-20 -32 -44 -71 -54 -88c-37 -61 -45 -69 -57 -54c-7 8 -3 20 20 56c35 57 48 129 31 169c-11 23 -32 46 -60 65
c-12 8 -23 18 -24 23c-3 10 4 22 16 27c18 7 76 15 145 19c38 3 67 6 70 9c7 7 141 277 175 354c18 40 35 82 37 93c6 23 16 35 27 35zM421 502v0c-1 -1 -2 -3 -3 -6c-2 -4 -33 -68 -70 -142c-36 -74 -66 -136 -66 -137c0 -2 60 0 87 4c10 1 16 4 16 7c0 30 16 148 32 230
c4 23 6 42 5 43v1h-1zM216 179v0c-15 0 -52 -3 -103 -9c-27 -3 -51 -5 -54 -5s0 -5 8 -11c38 -29 64 -75 65 -113c1 -12 2 -22 2 -22c1 0 11 16 22 35c25 43 68 122 68 125c0 0 -3 1 -8 0zM520 741c-6 6 -15 18 -20 27c-5 10 -10 17 -11 17c-5 0 -16 -13 -16 -20
c0 -10 -15 -18 -23 -14c-16 8 -5 40 20 59c27 20 53 10 68 -27c12 -26 22 -21 38 15c7 15 10 18 17 17c8 -1 9 -3 8 -21c-1 -49 -49 -80 -81 -53z" />
    <glyph glyph-name="AEacute" unicode="&#x1fc;" horiz-adv-x="895" 
d="M480 701v-1v0v1zM959 190c6 0 14 -8 14 -14c0 -19 -245 -279 -309 -329c-19 -14 -52 -35 -74 -46c-37 -18 -44 -20 -70 -21c-25 -1 -32 0 -49 9c-11 5 -19 11 -26 18c-2 1 -3 2 -4 3c-21 16 -43 81 -55 159c-6 36 -7 65 -7 136l1 89l-33 -2c-19 -1 -45 -3 -59 -5l-26 -2
l-18 -35c-28 -55 -51 -96 -90 -158c-20 -32 -44 -71 -54 -88c-37 -61 -45 -69 -57 -54c-7 8 -3 20 20 56c35 57 48 129 31 169c-10 23 -32 46 -60 65c-12 8 -23 19 -24 23c-3 10 4 23 17 27c17 7 75 15 144 19c38 3 67 7 70 9c7 7 141 278 175 354c18 40 35 82 37 93
c6 23 16 35 27 35c5 1 10 -2 16 -7c13 -14 10 -43 -31 -327c-5 -30 -15 -122 -15 -131s14 -9 40 -1c20 6 29 3 29 -10c0 -10 -20 -18 -50 -22l-21 -3l-3 -23c-1 -12 -2 -56 -3 -96v-1c24 56 66 124 104 165c13 13 23 25 23 25c0 1 -2 1 -6 1c-11 0 -28 12 -36 25
c-20 33 -1 84 61 167c21 28 36 46 79 96c16 18 84 70 119 90c63 38 105 46 124 24c13 -15 11 -29 -11 -77c-26 -57 -45 -85 -57 -85c-14 0 -14 15 0 49c18 40 27 69 23 69c-2 0 -16 -8 -31 -16c-80 -45 -160 -122 -233 -224c-48 -67 -50 -86 -9 -82c15 2 33 8 56 20
c19 9 37 17 40 17c11 0 31 -15 31 -22c0 -9 -6 -14 -36 -32c-25 -14 -78 -68 -109 -109c-76 -102 -123 -248 -103 -317c7 -23 22 -40 40 -44c25 -7 90 21 144 62c35 26 185 178 259 262c22 26 43 47 45 47zM155 56c25 43 68 122 68 125c0 0 -3 1 -8 1v0
c-15 -1 -52 -4 -103 -10c-27 -3 -51 -5 -54 -5s0 -5 8 -11c38 -29 64 -75 65 -113c1 -12 2 -22 2 -22c1 0 11 16 22 35zM416 460c4 23 7 42 5 44v0h-1v0c-1 0 -2 -2 -3 -6c-2 -4 -33 -68 -70 -142c-36 -74 -66 -136 -66 -137c0 -2 60 1 87 4c10 1 16 4 16 7
c0 30 16 148 32 230zM636 685c-7 8 -5 14 16 50c23 41 45 64 59 64c11 0 24 -12 24 -22c0 -15 -56 -80 -79 -92c-11 -6 -14 -6 -20 0v0z" />
    <glyph glyph-name="Cacute" unicode="&#x106;" horiz-adv-x="476" 
d="M121 -189c-35 12 -59 38 -73 79c-10 29 -10 144 0 206c32 206 116 396 220 498c58 57 103 78 143 66c34 -10 50 -38 53 -92c5 -96 -47 -237 -97 -261c-12 -5 -15 -5 -26 0c-8 3 -15 9 -16 14c-6 17 14 37 27 26c12 -9 44 54 60 118c11 45 13 125 2 141
c-15 23 -51 8 -99 -42c-36 -37 -48 -54 -76 -102c-78 -135 -121 -278 -139 -462c-7 -65 -1 -111 15 -130c13 -15 35 -23 57 -21c65 7 149 84 312 286c32 40 42 47 50 32c5 -9 1 -15 -63 -96c-112 -144 -192 -223 -259 -252c-26 -12 -67 -16 -91 -8v0zM405 727
c-7 8 -5 14 16 50c23 41 45 64 59 64c11 0 24 -12 24 -22c0 -15 -56 -80 -79 -92c-11 -6 -14 -6 -20 0v0z" />
    <glyph glyph-name="Ccaron" unicode="&#x10c;" horiz-adv-x="476" 
d="M121 -189c-35 12 -59 38 -73 79c-10 29 -10 144 0 206c32 206 116 396 220 498c58 57 103 78 143 66c34 -10 50 -38 53 -92c5 -96 -47 -237 -97 -261c-12 -5 -15 -5 -26 0c-8 3 -15 9 -16 14c-6 17 14 37 27 26c12 -9 44 54 60 118c11 45 13 125 2 141
c-15 23 -51 8 -99 -42c-36 -37 -48 -54 -76 -102c-78 -135 -121 -278 -139 -462c-7 -65 -1 -111 15 -130c13 -15 35 -23 57 -21c65 7 149 84 312 286c32 40 42 47 50 32c5 -9 1 -15 -63 -96c-112 -144 -192 -223 -259 -252c-26 -12 -67 -16 -91 -8v0zM396 725
c-22 15 -37 31 -48 53c-9 18 -9 24 -1 32c14 14 38 1 63 -36c7 -11 14 -19 15 -19c2 0 12 13 24 29c12 17 25 33 29 37c10 9 21 7 23 -3c1 -8 -52 -92 -64 -101c-10 -8 -21 -6 -41 8v0z" />
    <glyph glyph-name="Ccedilla" unicode="&#xc7;" horiz-adv-x="476" 
d="M109 -325c-27 6 -43 27 -29 38c5 4 7 4 15 0c24 -13 64 2 69 25c4 15 -1 18 -26 16c-39 -4 -46 7 -28 47l6 12c-32 13 -55 38 -68 77c-10 29 -10 144 0 206c32 206 116 396 220 498c58 57 103 78 143 66c34 -10 50 -38 53 -92c5 -96 -47 -237 -97 -261
c-12 -5 -15 -5 -26 0c-8 3 -15 9 -16 14c-6 17 14 37 27 26c12 -9 44 54 60 118c11 45 13 125 2 141c-15 23 -51 8 -99 -42c-36 -37 -48 -54 -76 -102c-78 -135 -121 -278 -139 -462c-7 -65 -1 -111 15 -130c13 -15 35 -23 57 -21c65 7 149 84 312 286c32 40 42 47 50 32
c5 -9 1 -15 -63 -96c-112 -144 -192 -223 -259 -252c-16 -7 -36 -11 -55 -12c-6 -12 -10 -22 -10 -22c0 -1 6 -1 13 -1c16 -1 31 -10 39 -25c21 -42 -38 -97 -90 -84z" />
    <glyph glyph-name="Ccircumflex" unicode="&#x108;" horiz-adv-x="476" 
d="M121 -189c-35 12 -59 38 -73 79c-10 29 -10 144 0 206c32 206 116 396 220 498c58 57 103 78 143 66c34 -10 50 -38 53 -92c5 -96 -47 -237 -97 -261c-12 -5 -15 -5 -26 0c-8 3 -15 9 -16 14c-6 17 14 37 27 26c12 -9 44 54 60 118c11 45 13 125 2 141
c-15 23 -51 8 -99 -42c-36 -37 -48 -54 -76 -102c-78 -135 -121 -278 -139 -462c-7 -65 -1 -111 15 -130c13 -15 35 -23 57 -21c65 7 149 84 312 286c32 40 42 47 50 32c5 -9 1 -15 -63 -96c-112 -144 -192 -223 -259 -252c-26 -12 -67 -16 -91 -8v0zM354 703
c-9 9 15 57 47 94c14 15 18 18 30 18s17 -3 32 -18c23 -25 40 -58 37 -74c-2 -7 -5 -15 -7 -18c-6 -7 -26 -7 -26 0c0 3 -3 8 -6 11c-4 2 -13 16 -22 31c-8 14 -17 25 -18 24c-2 -1 -14 -17 -26 -36c-16 -26 -24 -35 -30 -35c-5 0 -10 1 -11 3v0z" />
    <glyph glyph-name="Cdotaccent" unicode="&#x10a;" horiz-adv-x="476" 
d="M121 -189v0c24 -8 65 -4 91 8c67 29 147 108 259 252c64 81 68 87 63 96c-8 15 -18 8 -50 -32c-163 -202 -247 -279 -312 -286c-22 -2 -44 6 -57 21c-16 19 -22 65 -15 130c18 184 61 327 139 462c28 48 40 65 76 102c48 50 84 65 99 42c11 -16 9 -96 -2 -141
c-16 -64 -48 -127 -60 -118c-13 11 -33 -9 -27 -26c1 -5 8 -11 16 -14c11 -5 14 -5 26 0c50 24 102 165 97 261c-3 54 -19 82 -53 92c-40 12 -85 -9 -143 -66c-104 -102 -188 -292 -220 -498c-10 -62 -10 -177 0 -206c14 -41 38 -67 73 -79zM425 755c11 0 24 -12 29 -26
c2 -6 0 -11 -9 -20c-14 -13 -28 -15 -39 -4c-16 16 -3 50 19 50z" />
    <glyph glyph-name="Dcaron" unicode="&#x10e;" horiz-adv-x="631" 
d="M105 -206c-72 16 -104 64 -92 135c7 39 22 69 52 101c27 28 88 71 124 87c21 9 22 10 26 29c13 62 66 232 87 278l12 25l-10 2c-9 2 -10 4 -10 18c0 12 3 20 13 33c25 32 82 90 90 92c9 3 24 -6 27 -16c3 -8 0 -15 -34 -100c-25 -61 -49 -125 -64 -169
c-8 -25 -38 -136 -41 -150l-2 -10l32 7c80 17 109 17 106 -2c-1 -7 -6 -9 -41 -15c-22 -3 -55 -10 -74 -15l-33 -8l-6 -29c-13 -55 -18 -74 -25 -91c-5 -10 -8 -21 -8 -25s-4 -10 -8 -12c-7 -3 -10 -3 -18 3c-10 7 -11 10 -12 45c0 21 1 47 3 59s4 22 3 23
c-3 3 -43 -21 -75 -45c-36 -27 -55 -48 -71 -81c-10 -21 -12 -29 -12 -54c0 -32 6 -46 27 -60c73 -51 244 9 356 124c99 103 183 311 174 435c-4 70 -30 134 -69 176c-34 36 -46 42 -93 41c-64 0 -126 -25 -188 -76c-31 -24 -73 -72 -97 -109c-19 -30 -22 -39 -16 -51
c4 -8 4 -10 -4 -16c-11 -9 -17 -8 -27 1c-12 12 -10 32 7 65c28 56 93 129 146 165c91 61 199 83 258 52c44 -23 80 -62 106 -115c46 -96 47 -195 5 -326c-17 -54 -54 -133 -82 -177c-20 -31 -66 -88 -89 -110c-50 -48 -149 -104 -218 -125c-38 -11 -105 -15 -135 -9v0z
M438 735c-22 15 -37 31 -48 53c-9 18 -9 24 -1 32c14 14 38 1 63 -36c7 -11 14 -19 15 -19c2 0 12 13 24 29c12 17 25 33 29 37c10 9 21 7 23 -3c1 -8 -52 -92 -64 -101c-10 -8 -21 -6 -41 8v0z" />
    <glyph glyph-name="Eacute" unicode="&#xc9;" horiz-adv-x="528" 
d="M85 -220c-24 11 -37 27 -49 54c-23 51 -20 115 10 208c20 60 70 145 115 193c13 13 23 25 23 25c0 1 -3 1 -6 1c-11 0 -29 12 -36 25c-21 32 -2 84 60 167c22 28 36 46 80 96c15 18 84 70 118 90c64 38 106 46 125 24c12 -15 10 -29 -11 -77c-26 -57 -45 -85 -58 -85
c-14 0 -14 15 1 48c17 41 27 69 23 69c-2 0 -16 -7 -32 -15c-80 -46 -159 -122 -232 -224c-48 -67 -50 -86 -9 -82c14 2 32 8 56 20c19 9 37 17 40 17c10 0 31 -15 31 -22c0 -9 -7 -14 -36 -32c-25 -14 -79 -68 -109 -109c-76 -102 -124 -248 -103 -317c6 -23 21 -40 39 -44
c26 -7 90 21 144 62c35 26 186 178 259 262c23 26 43 47 46 47c5 0 13 -8 13 -14c0 -19 -244 -279 -309 -329c-18 -14 -52 -35 -74 -46c-36 -18 -43 -20 -70 -21c-25 -1 -31 0 -49 9v0zM480 737c-7 8 -5 14 16 50c23 41 45 64 59 64c11 0 24 -12 24 -22
c0 -15 -56 -80 -79 -92c-11 -6 -14 -6 -20 0v0z" />
    <glyph glyph-name="Ebreve" unicode="&#x114;" horiz-adv-x="528" 
d="M85 -220c-24 11 -37 27 -49 54c-23 51 -20 115 10 208c20 60 70 145 115 193c13 13 23 25 23 25c0 1 -3 1 -6 1c-11 0 -29 12 -36 25c-21 32 -2 84 60 167c22 28 36 46 80 96c15 18 84 70 118 90c64 38 106 46 125 24c12 -15 10 -29 -11 -77c-26 -57 -45 -85 -58 -85
c-14 0 -14 15 1 48c17 41 27 69 23 69c-2 0 -16 -7 -32 -15c-80 -46 -159 -122 -232 -224c-48 -67 -50 -86 -9 -82c14 2 32 8 56 20c19 9 37 17 40 17c10 0 31 -15 31 -22c0 -9 -7 -14 -36 -32c-25 -14 -79 -68 -109 -109c-76 -102 -124 -248 -103 -317c6 -23 21 -40 39 -44
c26 -7 90 21 144 62c35 26 186 178 259 262c23 26 43 47 46 47c5 0 13 -8 13 -14c0 -19 -244 -279 -309 -329c-18 -14 -52 -35 -74 -46c-36 -18 -43 -20 -70 -21c-25 -1 -31 0 -49 9v0zM447 744c-8 9 -13 16 -23 33c-9 18 11 27 18 19c7 -10 11 -14 28 -35
c25 -33 30 -17 54 8c14 16 28 31 33 34c10 8 26 -4 20 -13c-16 -21 -21 -32 -32 -42c-53 -58 -77 -26 -98 -4z" />
    <glyph glyph-name="Ecaron" unicode="&#x11a;" horiz-adv-x="528" 
d="M85 -220c-24 11 -37 27 -49 54c-23 51 -20 115 10 208c20 60 70 145 115 193c13 13 23 25 23 25c0 1 -3 1 -6 1c-11 0 -29 12 -36 25c-21 32 -2 84 60 167c22 28 36 46 80 96c15 18 84 70 118 90c64 38 106 46 125 24c12 -15 10 -29 -11 -77c-26 -57 -45 -85 -58 -85
c-14 0 -14 15 1 48c17 41 27 69 23 69c-2 0 -16 -7 -32 -15c-80 -46 -159 -122 -232 -224c-48 -67 -50 -86 -9 -82c14 2 32 8 56 20c19 9 37 17 40 17c10 0 31 -15 31 -22c0 -9 -7 -14 -36 -32c-25 -14 -79 -68 -109 -109c-76 -102 -124 -248 -103 -317c6 -23 21 -40 39 -44
c26 -7 90 21 144 62c35 26 186 178 259 262c23 26 43 47 46 47c5 0 13 -8 13 -14c0 -19 -244 -279 -309 -329c-18 -14 -52 -35 -74 -46c-36 -18 -43 -20 -70 -21c-25 -1 -31 0 -49 9v0zM471 735c-22 15 -37 31 -48 53c-9 18 -9 24 -1 32c14 14 38 1 63 -36
c7 -11 14 -19 15 -19c2 0 12 13 24 29c12 17 25 33 29 37c10 9 21 7 23 -3c1 -8 -52 -92 -64 -101c-10 -8 -21 -6 -41 8v0z" />
    <glyph glyph-name="Ecircumflex" unicode="&#xca;" horiz-adv-x="528" 
d="M85 -220c-24 11 -37 27 -49 54c-23 51 -20 115 10 208c20 60 70 145 115 193c13 13 23 25 23 25c0 1 -3 1 -6 1c-11 0 -29 12 -36 25c-21 32 -2 84 60 167c22 28 36 46 80 96c15 18 84 70 118 90c64 38 106 46 125 24c12 -15 10 -29 -11 -77c-26 -57 -45 -85 -58 -85
c-14 0 -14 15 1 48c17 41 27 69 23 69c-2 0 -16 -7 -32 -15c-80 -46 -159 -122 -232 -224c-48 -67 -50 -86 -9 -82c14 2 32 8 56 20c19 9 37 17 40 17c10 0 31 -15 31 -22c0 -9 -7 -14 -36 -32c-25 -14 -79 -68 -109 -109c-76 -102 -124 -248 -103 -317c6 -23 21 -40 39 -44
c26 -7 90 21 144 62c35 26 186 178 259 262c23 26 43 47 46 47c5 0 13 -8 13 -14c0 -19 -244 -279 -309 -329c-18 -14 -52 -35 -74 -46c-36 -18 -43 -20 -70 -21c-25 -1 -31 0 -49 9v0zM429 713c-9 9 15 57 47 94c14 15 18 18 30 18s17 -3 32 -18c23 -25 40 -58 37 -74
c-2 -7 -5 -15 -7 -18c-6 -7 -26 -7 -26 0c0 3 -3 8 -6 11c-4 2 -13 16 -22 31c-8 14 -17 25 -18 24c-2 -1 -14 -17 -26 -36c-16 -26 -24 -35 -30 -35c-5 0 -10 1 -11 3v0z" />
    <glyph glyph-name="Edieresis" unicode="&#xcb;" horiz-adv-x="528" 
d="M85 -220v0c18 -9 24 -10 49 -9c27 1 34 3 70 21c22 11 56 32 74 46c65 50 309 310 309 329c0 6 -8 14 -13 14c-3 0 -23 -21 -46 -47c-73 -84 -224 -236 -259 -262c-54 -41 -118 -69 -144 -62c-18 4 -33 21 -39 44c-21 69 27 215 103 317c30 41 84 95 109 109
c29 18 36 23 36 32c0 7 -21 22 -31 22c-3 0 -21 -8 -40 -17c-24 -12 -42 -18 -56 -20c-41 -4 -39 15 9 82c73 102 152 178 232 224c16 8 30 15 32 15c4 0 -6 -28 -23 -69c-15 -33 -15 -48 -1 -48c13 0 32 28 58 85c21 48 23 62 11 77c-19 22 -61 14 -125 -24
c-34 -20 -103 -72 -118 -90c-44 -50 -58 -68 -80 -96c-62 -83 -81 -135 -60 -167c7 -13 25 -25 36 -25c3 0 6 0 6 -1c0 0 -10 -12 -23 -25c-45 -48 -95 -133 -115 -193c-30 -93 -33 -157 -10 -208c12 -27 25 -43 49 -54zM464 766c11 0 24 -12 29 -26c2 -6 0 -11 -9 -20
c-14 -13 -28 -15 -39 -4c-16 16 -3 50 19 50zM560 760c15 -7 20 -19 13 -33c-9 -18 -33 -25 -45 -12v0c-7 7 -8 28 -1 36c9 13 21 16 33 9z" />
    <glyph glyph-name="Edotaccent" unicode="&#x116;" horiz-adv-x="528" 
d="M85 -220v0c18 -9 24 -10 49 -9c27 1 34 3 70 21c22 11 56 32 74 46c65 50 309 310 309 329c0 6 -8 14 -13 14c-3 0 -23 -21 -46 -47c-73 -84 -224 -236 -259 -262c-54 -41 -118 -69 -144 -62c-18 4 -33 21 -39 44c-21 69 27 215 103 317c30 41 84 95 109 109
c29 18 36 23 36 32c0 7 -21 22 -31 22c-3 0 -21 -8 -40 -17c-24 -12 -42 -18 -56 -20c-41 -4 -39 15 9 82c73 102 152 178 232 224c16 8 30 15 32 15c4 0 -6 -28 -23 -69c-15 -33 -15 -48 -1 -48c13 0 32 28 58 85c21 48 23 62 11 77c-19 22 -61 14 -125 -24
c-34 -20 -103 -72 -118 -90c-44 -50 -58 -68 -80 -96c-62 -83 -81 -135 -60 -167c7 -13 25 -25 36 -25c3 0 6 0 6 -1c0 0 -10 -12 -23 -25c-45 -48 -95 -133 -115 -193c-30 -93 -33 -157 -10 -208c12 -27 25 -43 49 -54zM500 765c11 0 24 -12 29 -26c2 -6 0 -11 -9 -20
c-14 -13 -28 -15 -39 -4c-16 16 -3 50 19 50z" />
    <glyph glyph-name="Egrave" unicode="&#xc8;" horiz-adv-x="528" 
d="M85 -220c-24 11 -37 27 -49 54c-23 51 -20 115 10 208c20 60 70 145 115 193c13 13 23 25 23 25c0 1 -3 1 -6 1c-11 0 -29 12 -36 25c-21 32 -2 84 60 167c22 28 36 46 80 96c15 18 84 70 118 90c64 38 106 46 125 24c12 -15 10 -29 -11 -77c-26 -57 -45 -85 -58 -85
c-14 0 -14 15 1 48c17 41 27 69 23 69c-2 0 -16 -7 -32 -15c-80 -46 -159 -122 -232 -224c-48 -67 -50 -86 -9 -82c14 2 32 8 56 20c19 9 37 17 40 17c10 0 31 -15 31 -22c0 -9 -7 -14 -36 -32c-25 -14 -79 -68 -109 -109c-76 -102 -124 -248 -103 -317c6 -23 21 -40 39 -44
c26 -7 90 21 144 62c35 26 186 178 259 262c23 26 43 47 46 47c5 0 13 -8 13 -14c0 -19 -244 -279 -309 -329c-18 -14 -52 -35 -74 -46c-36 -18 -43 -20 -70 -21c-25 -1 -31 0 -49 9v0zM485 727c-41 23 -70 47 -71 58c-3 28 21 35 52 14c24 -16 66 -59 66 -66
c0 -11 -7 -22 -14 -21c-4 0 -18 7 -33 15v0z" />
    <glyph glyph-name="Eogonek" unicode="&#x118;" horiz-adv-x="528" 
d="M74 -284c8 15 23 24 39 25c7 0 13 0 13 1c0 0 -4 10 -10 22l-3 7c-10 1 -17 3 -28 9c-24 11 -37 27 -49 54c-23 51 -20 115 10 208c20 60 70 145 115 193c13 13 23 25 23 25c0 1 -3 1 -6 1c-11 0 -29 12 -36 25c-21 32 -2 84 60 167c22 28 36 46 80 96
c15 18 84 70 118 90c64 38 106 46 125 24c12 -15 10 -29 -11 -77c-26 -57 -45 -85 -58 -85c-14 0 -14 15 1 48c17 41 27 69 23 69c-2 0 -16 -7 -32 -15c-80 -46 -159 -122 -232 -224c-48 -67 -50 -86 -9 -82c14 2 32 8 56 20c19 9 37 17 40 17c10 0 31 -15 31 -22
c0 -9 -7 -14 -36 -32c-25 -14 -79 -68 -109 -109c-76 -102 -124 -248 -103 -317c6 -23 21 -40 39 -44c26 -7 90 21 144 62c35 26 186 178 259 262c23 26 43 47 46 47c5 0 13 -8 13 -14c0 -19 -244 -279 -309 -329c-18 -14 -52 -35 -74 -46c-24 -12 -36 -17 -48 -19l7 -15
c18 -40 11 -51 -28 -47c-25 2 -30 -1 -26 -16c5 -23 45 -38 69 -25c8 4 10 4 15 0c14 -11 -2 -32 -29 -38c-52 -13 -111 42 -90 84z" />
    <glyph glyph-name="Gbreve" unicode="&#x11e;" horiz-adv-x="423" 
d="M120 -251c-24 8 -37 28 -37 58c0 14 1 20 6 22c10 4 18 -5 22 -23c12 -65 94 -5 144 105c22 49 43 123 55 200c2 13 5 16 -36 -39c-81 -109 -115 -137 -159 -130c-53 9 -68 85 -42 214c8 36 45 150 67 202c36 87 93 181 136 228c38 40 92 75 123 80c25 3 48 -11 62 -40
c9 -19 10 -25 10 -59c0 -44 -5 -74 -18 -118c-19 -63 -57 -138 -78 -155c-16 -12 -39 -8 -39 8c0 4 5 10 12 15c21 16 68 123 80 185c10 52 7 99 -8 113l-7 8l-17 -9c-26 -14 -71 -58 -94 -91c-59 -85 -113 -207 -152 -341c-22 -75 -29 -114 -29 -157c0 -37 2 -41 22 -36
c15 4 83 74 124 130c87 118 85 116 99 116c10 0 15 -3 21 -10l8 -11l-11 -57c-22 -120 -39 -177 -69 -241c-38 -77 -88 -140 -127 -159c-19 -9 -52 -13 -68 -8v0zM377 744c-8 9 -13 16 -23 33c-9 18 11 27 18 19c7 -10 11 -14 28 -35c25 -33 30 -17 54 8c14 16 28 31 33 34
c10 8 26 -4 20 -13c-16 -21 -21 -32 -32 -42c-53 -58 -77 -26 -98 -4z" />
    <glyph glyph-name="Gcircumflex" unicode="&#x11c;" horiz-adv-x="423" 
d="M120 -251c-24 8 -37 28 -37 58c0 14 1 20 6 22c10 4 18 -5 22 -23c12 -65 94 -5 144 105c22 49 43 123 55 200c2 13 5 16 -36 -39c-81 -109 -115 -137 -159 -130c-53 9 -68 85 -42 214c8 36 45 150 67 202c36 87 93 181 136 228c38 40 92 75 123 80c25 3 48 -11 62 -40
c9 -19 10 -25 10 -59c0 -44 -5 -74 -18 -118c-19 -63 -57 -138 -78 -155c-16 -12 -39 -8 -39 8c0 4 5 10 12 15c21 16 68 123 80 185c10 52 7 99 -8 113l-7 8l-17 -9c-26 -14 -71 -58 -94 -91c-59 -85 -113 -207 -152 -341c-22 -75 -29 -114 -29 -157c0 -37 2 -41 22 -36
c15 4 83 74 124 130c87 118 85 116 99 116c10 0 15 -3 21 -10l8 -11l-11 -57c-22 -120 -39 -177 -69 -241c-38 -77 -88 -140 -127 -159c-19 -9 -52 -13 -68 -8v0zM359 713c-9 9 15 57 47 94c14 15 18 18 30 18s17 -3 32 -18c23 -25 40 -58 37 -74c-2 -7 -5 -15 -7 -18
c-6 -7 -26 -7 -26 0c0 3 -3 8 -6 11c-4 2 -13 16 -22 31c-8 14 -17 25 -18 24c-2 -1 -14 -17 -26 -36c-16 -26 -24 -35 -30 -35c-5 0 -10 1 -11 3v0z" />
    <glyph glyph-name="Gcommaaccent" unicode="&#x122;" horiz-adv-x="423" 
d="M73 -406c-7 7 -6 9 9 32l15 22l-8 6c-19 15 -20 37 -3 51c14 10 26 9 38 -5c17 -21 10 -62 -18 -93c-16 -18 -25 -21 -33 -13zM120 -251c-24 8 -37 28 -37 58c0 14 1 20 6 22c10 4 18 -5 22 -23c12 -65 94 -5 144 105c22 49 43 123 55 200c2 13 5 16 -36 -39
c-81 -109 -115 -137 -159 -130c-53 9 -68 85 -42 214c8 36 45 150 67 202c36 87 93 181 136 228c38 40 92 75 123 80c25 3 48 -11 62 -40c9 -19 10 -25 10 -59c0 -44 -5 -74 -18 -118c-19 -63 -57 -138 -78 -155c-16 -12 -39 -8 -39 8c0 4 5 10 12 15c21 16 68 123 80 185
c10 52 7 99 -8 113l-7 8l-17 -9c-26 -14 -71 -58 -94 -91c-59 -85 -113 -207 -152 -341c-22 -75 -29 -114 -29 -157c0 -37 2 -41 22 -36c15 4 83 74 124 130c87 118 85 116 99 116c10 0 15 -3 21 -10l8 -11l-11 -57c-22 -120 -39 -177 -69 -241c-38 -77 -88 -140 -127 -159
c-19 -9 -52 -13 -68 -8v0z" />
    <glyph glyph-name="Gdotaccent" unicode="&#x120;" horiz-adv-x="423" 
d="M120 -251v0c16 -5 49 -1 68 8c39 19 89 82 127 159c30 64 47 121 69 241l11 57l-8 11c-6 7 -11 10 -21 10c-14 0 -12 2 -99 -116c-41 -56 -109 -126 -124 -130c-20 -5 -22 -1 -22 36c0 43 7 82 29 157c39 134 93 256 152 341c23 33 68 77 94 91l17 9l7 -8
c15 -14 18 -61 8 -113c-12 -62 -59 -169 -80 -185c-7 -5 -12 -11 -12 -15c0 -16 23 -20 39 -8c21 17 59 92 78 155c13 44 18 74 18 118c0 34 -1 40 -10 59c-14 29 -37 43 -62 40c-31 -5 -85 -40 -123 -80c-43 -47 -100 -141 -136 -228c-22 -52 -59 -166 -67 -202
c-26 -129 -11 -205 42 -214c44 -7 78 21 159 130c41 55 38 52 36 39c-12 -77 -33 -151 -55 -200c-50 -110 -132 -170 -144 -105c-4 18 -12 27 -22 23c-5 -2 -6 -8 -6 -22c0 -30 13 -50 37 -58zM430 765c11 0 24 -12 29 -26c2 -6 0 -11 -9 -20c-14 -13 -28 -15 -39 -4
c-16 16 -3 50 19 50z" />
    <glyph glyph-name="Hcircumflex" unicode="&#x124;" horiz-adv-x="590" 
d="M574 664v0c15 1 27 -13 23 -33s-22 -77 -45 -140c-48 -135 -82 -233 -87 -255c-1 -8 0 -8 55 -8c38 -1 60 -2 66 -5c12 -7 11 -22 -1 -30c-9 -6 -10 -6 -19 0c-8 5 -19 6 -61 5l-51 -1l-13 -38c-16 -48 -46 -149 -65 -220c-17 -60 -23 -92 -17 -88s20 -9 20 -18
c0 -10 -20 -44 -32 -53c-11 -9 -30 -9 -38 0c-19 21 -18 66 3 162c12 55 57 219 66 243c3 7 1 7 -24 5c-46 -4 -122 -18 -127 -23c-2 -2 -11 -34 -20 -70c-16 -64 -18 -74 -37 -157c-5 -24 -9 -52 -9 -62c0 -31 -17 -41 -38 -23l-10 9l1 60c0 32 2 68 4 80
c4 30 -1 43 -24 66c-14 14 -28 23 -51 33c-16 7 -33 16 -37 19c-10 9 -6 20 8 28c12 7 125 38 139 38c7 0 7 -1 29 74c5 19 22 73 38 120c15 47 27 86 27 86c-1 0 -5 -7 -10 -15c-8 -16 -17 -20 -26 -11c-8 8 -5 19 12 49c25 42 76 120 81 124c14 9 29 -6 29 -30
c0 -21 -14 -87 -38 -169c-44 -155 -58 -205 -58 -208c0 -2 11 -2 26 1s44 7 65 9c69 8 62 5 69 30c31 111 135 377 158 404c6 8 13 11 19 12zM146 153v0c-5 0 -24 -4 -45 -9l-44 -11l22 -13c12 -8 28 -19 35 -27c8 -7 15 -12 16 -10c2 2 7 17 11 35c5 18 7 33 6 34
c0 0 0 1 -1 1zM362 695c-9 9 15 57 47 94c14 15 18 18 30 18s17 -3 32 -18c23 -25 40 -58 37 -74c-2 -7 -5 -15 -7 -18c-6 -7 -26 -7 -26 0c0 3 -3 8 -6 11c-4 2 -13 16 -22 31c-8 14 -17 25 -18 24c-2 -1 -14 -17 -26 -36c-16 -26 -24 -35 -30 -35c-5 0 -10 1 -11 3v0z" />
    <glyph glyph-name="Iacute" unicode="&#xcd;" horiz-adv-x="238" 
d="M68 -179c-6 8 -8 15 -8 43c0 57 17 132 56 258c12 37 27 83 33 102c25 80 99 271 124 318c7 15 -8 -1 -23 -23c-15 -24 -22 -28 -30 -21c-16 13 3 47 62 109c47 49 58 57 69 50c15 -9 18 -23 11 -51c-3 -14 -12 -41 -20 -60c-32 -82 -106 -286 -127 -351
c-46 -141 -63 -198 -72 -234c-6 -23 -14 -54 -20 -71c-9 -27 -9 -30 -3 -35c9 -9 7 -21 -6 -33c-15 -15 -34 -16 -46 -1v0zM346 737c-7 8 -5 14 16 50c23 41 45 64 59 64c11 0 24 -12 24 -22c0 -15 -56 -80 -79 -92c-11 -6 -14 -6 -20 0v0z" />
    <glyph glyph-name="Ibreve" unicode="&#x12c;" horiz-adv-x="238" 
d="M68 -179c-6 8 -8 15 -8 43c0 57 17 132 56 258c12 37 27 83 33 102c25 80 99 271 124 318c7 15 -8 -1 -23 -23c-15 -24 -22 -28 -30 -21c-16 13 3 47 62 109c47 49 58 57 69 50c15 -9 18 -23 11 -51c-3 -14 -12 -41 -20 -60c-32 -82 -106 -286 -127 -351
c-46 -141 -63 -198 -72 -234c-6 -23 -14 -54 -20 -71c-9 -27 -9 -30 -3 -35c9 -9 7 -21 -6 -33c-15 -15 -34 -16 -46 -1v0zM313 744c-8 9 -13 16 -23 33c-9 18 11 27 18 19c7 -10 11 -14 28 -35c25 -33 30 -17 54 8c14 16 28 31 33 34c10 8 26 -4 20 -13
c-16 -21 -21 -32 -32 -42c-53 -58 -77 -26 -98 -4z" />
    <glyph glyph-name="Icircumflex" unicode="&#xce;" horiz-adv-x="238" 
d="M68 -179c-6 8 -8 15 -8 43c0 57 17 132 56 258c12 37 27 83 33 102c25 80 99 271 124 318c7 15 -8 -1 -23 -23c-15 -24 -22 -28 -30 -21c-16 13 3 47 62 109c47 49 58 57 69 50c15 -9 18 -23 11 -51c-3 -14 -12 -41 -20 -60c-32 -82 -106 -286 -127 -351
c-46 -141 -63 -198 -72 -234c-6 -23 -14 -54 -20 -71c-9 -27 -9 -30 -3 -35c9 -9 7 -21 -6 -33c-15 -15 -34 -16 -46 -1v0zM295 713c-9 9 15 57 47 94c14 15 18 18 30 18s17 -3 32 -18c23 -25 40 -58 37 -74c-2 -7 -5 -15 -7 -18c-6 -7 -26 -7 -26 0c0 3 -3 8 -6 11
c-4 2 -13 16 -22 31c-8 14 -17 25 -18 24c-2 -1 -14 -17 -26 -36c-16 -26 -24 -35 -30 -35c-5 0 -10 1 -11 3v0z" />
    <glyph glyph-name="Idieresis" unicode="&#xcf;" horiz-adv-x="238" 
d="M68 -179v0c12 -15 31 -14 46 1c13 12 15 24 6 33c-6 5 -6 8 3 35c6 17 14 48 20 71c9 36 26 93 72 234c21 65 95 269 127 351c8 19 17 46 20 60c7 28 4 42 -11 51c-11 7 -22 -1 -69 -50c-59 -62 -78 -96 -62 -109c8 -7 15 -3 30 21c15 22 30 38 23 23
c-25 -47 -99 -238 -124 -318c-6 -19 -21 -65 -33 -102c-39 -126 -56 -201 -56 -258c0 -28 2 -35 8 -43zM330 766c11 0 24 -12 29 -26c2 -6 0 -11 -9 -20c-14 -13 -28 -15 -39 -4c-16 16 -3 50 19 50zM426 760c15 -7 20 -19 13 -33c-9 -18 -33 -25 -45 -12v0
c-7 7 -8 28 -1 36c9 13 21 16 33 9z" />
    <glyph glyph-name="Idotaccent" unicode="&#x130;" horiz-adv-x="238" 
d="M68 -179v0c12 -15 31 -14 46 1c13 12 15 24 6 33c-6 5 -6 8 3 35c6 17 14 48 20 71c9 36 26 93 72 234c21 65 95 269 127 351c8 19 17 46 20 60c7 28 4 42 -11 51c-11 7 -22 -1 -69 -50c-59 -62 -78 -96 -62 -109c8 -7 15 -3 30 21c15 22 30 38 23 23
c-25 -47 -99 -238 -124 -318c-6 -19 -21 -65 -33 -102c-39 -126 -56 -201 -56 -258c0 -28 2 -35 8 -43zM366 765c11 0 24 -12 29 -26c2 -6 0 -11 -9 -20c-14 -13 -28 -15 -39 -4c-16 16 -3 50 19 50z" />
    <glyph glyph-name="Igrave" unicode="&#xcc;" horiz-adv-x="238" 
d="M68 -179c-6 8 -8 15 -8 43c0 57 17 132 56 258c12 37 27 83 33 102c25 80 99 271 124 318c7 15 -8 -1 -23 -23c-15 -24 -22 -28 -30 -21c-16 13 3 47 62 109c47 49 58 57 69 50c15 -9 18 -23 11 -51c-3 -14 -12 -41 -20 -60c-32 -82 -106 -286 -127 -351
c-46 -141 -63 -198 -72 -234c-6 -23 -14 -54 -20 -71c-9 -27 -9 -30 -3 -35c9 -9 7 -21 -6 -33c-15 -15 -34 -16 -46 -1v0zM351 727c-41 23 -70 47 -71 58c-3 28 21 35 52 14c24 -16 66 -59 66 -66c0 -11 -7 -22 -14 -21c-4 0 -18 7 -33 15v0z" />
    <glyph glyph-name="Iogonek" unicode="&#x12e;" horiz-adv-x="238" 
d="M29 -227c8 15 23 24 39 25c7 0 13 0 13 1c0 0 -3 7 -7 17c-2 1 -4 3 -6 5c-6 8 -8 15 -8 43c0 57 17 132 56 258l33 102c25 80 99 271 124 318c7 15 -8 -1 -23 -23c-15 -24 -22 -28 -30 -21c-16 13 3 47 62 109c47 49 58 57 69 50c15 -9 18 -23 11 -51
c-3 -14 -12 -41 -20 -60c-32 -82 -106 -286 -127 -351c-46 -141 -63 -198 -72 -234c-6 -23 -14 -54 -20 -71c-9 -27 -9 -30 -3 -35c9 -9 7 -20 -6 -32l4 -8c18 -40 11 -51 -28 -47c-25 2 -30 -1 -26 -16c5 -23 45 -38 69 -25c8 4 10 4 15 0c14 -11 -2 -32 -29 -38
c-52 -13 -111 42 -90 84z" />
    <glyph glyph-name="Itilde" unicode="&#x128;" horiz-adv-x="238" 
d="M68 -179c-6 8 -8 15 -8 43c0 57 17 132 56 258c12 37 27 83 33 102c25 80 99 271 124 318c7 15 -8 -1 -23 -23c-15 -24 -22 -28 -30 -21c-16 13 3 47 62 109c47 49 58 57 69 50c15 -9 18 -23 11 -51c-3 -14 -12 -41 -20 -60c-32 -82 -106 -286 -127 -351
c-46 -141 -63 -198 -72 -234c-6 -23 -14 -54 -20 -71c-9 -27 -9 -30 -3 -35c9 -9 7 -21 -6 -33c-15 -15 -34 -16 -46 -1v0zM386 717c-6 6 -15 18 -20 27c-5 10 -10 17 -11 17c-5 0 -16 -13 -16 -20c0 -10 -15 -18 -23 -14c-16 8 -5 40 20 59c27 20 53 10 68 -27
c12 -26 22 -21 38 15c7 15 10 18 17 17c8 -1 9 -3 8 -21c-1 -49 -49 -80 -81 -53z" />
    <glyph glyph-name="Jcircumflex" unicode="&#x134;" horiz-adv-x="439" 
d="M70 -182c-43 15 -60 46 -60 105c0 112 94 301 178 359c27 19 41 21 54 9c10 -8 11 -11 11 -33c-1 -32 -3 -39 -14 -39c-13 0 -17 9 -15 29c3 21 -1 22 -23 3c-39 -35 -70 -79 -100 -143c-54 -115 -67 -208 -32 -237c11 -9 14 -10 32 -8c56 6 122 67 176 162
c31 55 71 144 95 211s94 284 93 286c-1 1 -4 -4 -7 -11c-11 -21 -37 -18 -31 4c2 8 33 51 77 107c8 10 18 23 22 29c8 12 25 13 35 2s7 -26 -18 -106c-12 -36 -26 -81 -32 -101c-67 -235 -105 -333 -179 -454c-38 -64 -83 -114 -127 -145c-41 -28 -103 -41 -135 -29v0z
M491 713c-9 9 15 57 47 94c14 15 18 18 30 18s17 -3 32 -18c23 -25 40 -58 37 -74c-2 -7 -5 -15 -7 -18c-6 -7 -26 -7 -26 0c0 3 -3 8 -6 11c-4 2 -13 16 -22 31c-8 14 -17 25 -18 24c-2 -1 -14 -17 -26 -36c-16 -26 -24 -35 -30 -35c-5 0 -10 1 -11 3v0z" />
    <glyph glyph-name="Kcommaaccent" unicode="&#x136;" horiz-adv-x="485" 
d="M149 -157c8 -8 17 -5 33 13c28 31 35 72 18 93c-12 14 -24 15 -38 5c-17 -14 -16 -36 3 -51l8 -6l-15 -22c-15 -23 -16 -25 -9 -32zM324 687v0c6 0 11 -3 16 -9c11 -11 11 -32 1 -60c-7 -21 -26 -69 -67 -177c-12 -30 -26 -66 -31 -78c-5 -13 -17 -43 -26 -67
c-19 -46 -19 -45 -2 -55c9 -5 45 14 92 48c44 32 74 60 132 124c77 85 109 127 153 197c29 46 32 50 43 50c21 0 24 -25 6 -62c-17 -37 -27 -50 -36 -48c-5 2 -13 -8 -37 -41c-34 -47 -87 -109 -150 -173c-51 -52 -101 -90 -149 -115c-11 -6 -20 -11 -20 -12s5 -12 11 -24
s19 -46 29 -76c18 -55 40 -101 57 -116c8 -8 11 -9 24 -5c8 2 25 12 38 21c18 14 24 17 30 14c11 -7 8 -17 -10 -34c-24 -22 -52 -35 -74 -35c-15 0 -19 2 -36 17c-24 23 -48 69 -69 134c-16 50 -29 81 -35 85c-7 4 -41 -6 -44 -13c-14 -35 -85 -225 -89 -238
c-3 -9 -3 -17 -1 -18c11 -7 -1 -39 -20 -49c-12 -7 -18 -8 -27 -3v0c-15 9 -16 23 -5 85c10 63 24 116 46 178c7 21 12 39 11 41s-6 3 -10 3c-22 0 -37 25 -30 48c5 15 27 36 40 38c4 1 15 3 24 5l15 4l22 53c12 30 26 61 30 70c4 8 7 17 7 18s8 19 16 39l16 37l-8 9
c-7 9 -7 11 -2 27c8 28 45 85 98 149c7 9 14 14 21 14zM111 235l-13 -3c-13 -3 -27 -16 -24 -22c2 -2 8 -3 15 -2c9 1 13 4 17 14z" />
    <glyph glyph-name="Lacute" unicode="&#x139;" horiz-adv-x="552" 
d="M342 658v0c47 0 40 -84 -28 -332c-34 -124 -55 -180 -95 -261c-14 -27 -26 -50 -26 -52c-1 -1 16 -4 38 -7s63 -9 91 -15c65 -12 113 -13 133 -4c25 12 36 22 37 38c2 12 4 15 13 16c13 2 23 -8 24 -26c1 -17 -27 -46 -59 -61c-29 -14 -66 -15 -127 -3
c-110 21 -180 28 -179 20c0 -9 -55 -59 -78 -71c-27 -13 -59 -18 -74 -13c-22 8 -33 30 -27 53c7 33 51 61 110 70l30 5l21 40c44 82 81 191 136 400c17 64 18 71 11 72c-24 4 -27 33 -7 71c20 39 40 60 56 60zM91 -26v0c-25 0 -72 -29 -71 -44c1 -9 6 -9 26 1
c21 9 56 43 45 43zM321 737c-7 8 -5 14 16 50c23 41 45 64 59 64c11 0 24 -12 24 -22c0 -15 -56 -80 -79 -92c-11 -6 -14 -6 -20 0v0z" />
    <glyph glyph-name="Lcaron" unicode="&#x13d;" horiz-adv-x="552" 
d="M342 658v0c47 0 40 -84 -28 -332c-34 -124 -55 -180 -95 -261c-14 -27 -26 -50 -26 -52c-1 -1 16 -4 38 -7s63 -9 91 -15c65 -12 113 -13 133 -4c25 12 36 22 37 38c2 12 4 15 13 16c13 2 23 -8 24 -26c1 -17 -27 -46 -59 -61c-29 -14 -66 -15 -127 -3
c-110 21 -180 28 -179 20c0 -9 -55 -59 -78 -71c-27 -13 -59 -18 -74 -13c-22 8 -33 30 -27 53c7 33 51 61 110 70l30 5l21 40c44 82 81 191 136 400c17 64 18 71 11 72c-24 4 -27 33 -7 71c20 39 40 60 56 60zM91 -26v0c-25 0 -72 -29 -71 -44c1 -9 6 -9 26 1
c21 9 56 43 45 43zM339 715c-7 6 -6 8 9 32l15 21l-8 7c-19 15 -20 36 -3 50c14 11 26 10 38 -4c17 -21 10 -62 -18 -93c-16 -18 -25 -22 -33 -13v0z" />
    <glyph glyph-name="Lcommaaccent" unicode="&#x13b;" horiz-adv-x="552" 
d="M184 -174c8 -8 17 -5 33 13c28 31 35 72 18 93c-12 14 -24 15 -38 5c-17 -14 -16 -36 3 -51l8 -6l-15 -22c-15 -23 -16 -25 -9 -32zM342 658v0c47 0 40 -84 -28 -332c-34 -124 -55 -180 -95 -261c-14 -27 -26 -50 -26 -52c-1 -1 16 -4 38 -7s63 -9 91 -15
c65 -12 113 -13 133 -4c25 12 36 22 37 38c2 12 4 15 13 16c13 2 23 -8 24 -26c1 -17 -27 -46 -59 -61c-29 -14 -66 -15 -127 -3c-110 21 -180 28 -179 20c0 -9 -55 -59 -78 -71c-27 -13 -59 -18 -74 -13c-22 8 -33 30 -27 53c7 33 51 61 110 70l30 5l21 40
c44 82 81 191 136 400c17 64 18 71 11 72c-24 4 -27 33 -7 71c20 39 40 60 56 60zM91 -26v0c-25 0 -72 -29 -71 -44c1 -9 6 -9 26 1c21 9 56 43 45 43z" />
    <glyph glyph-name="Ldot" unicode="&#x13f;" horiz-adv-x="552" 
d="M351 233c12 -8 17 -8 33 0c16 7 27 28 23 43c-4 17 -13 24 -32 24c-22 0 -39 -17 -39 -38c0 -16 2 -20 15 -29zM342 658v0c47 0 40 -84 -28 -332c-34 -124 -55 -180 -95 -261c-14 -27 -26 -50 -26 -52c-1 -1 16 -4 38 -7s63 -9 91 -15c65 -12 113 -13 133 -4
c25 12 36 22 37 38c2 12 4 15 13 16c13 2 23 -8 24 -26c1 -17 -27 -46 -59 -61c-29 -14 -66 -15 -127 -3c-110 21 -180 28 -179 20c0 -9 -55 -59 -78 -71c-27 -13 -59 -18 -74 -13c-22 8 -33 30 -27 53c7 33 51 61 110 70l30 5l21 40c44 82 81 191 136 400
c17 64 18 71 11 72c-24 4 -27 33 -7 71c20 39 40 60 56 60zM91 -26v0c-25 0 -72 -29 -71 -44c1 -9 6 -9 26 1c21 9 56 43 45 43z" />
    <glyph glyph-name="Nacute" unicode="&#x143;" horiz-adv-x="467" 
d="M333 -206c-14 11 -18 31 -18 89c0 79 10 140 47 281c34 134 109 341 159 441l10 20l-14 -14c-20 -18 -76 -86 -109 -130c-66 -90 -157 -239 -212 -350c-33 -64 -85 -181 -85 -189c0 -4 -4 -11 -9 -17c-8 -7 -13 -9 -24 -8c-12 1 -16 3 -22 15c-6 11 -6 19 -5 55
c2 40 13 119 22 167c11 53 43 156 68 214c13 31 13 33 7 40c-13 14 0 49 42 109c35 49 49 63 63 63c12 0 18 -4 22 -19c3 -12 -14 -64 -52 -159c-15 -36 -32 -80 -38 -98c-18 -49 -60 -200 -79 -286c-4 -15 5 2 25 46c56 130 164 316 253 434c83 110 164 194 187 194
c10 0 24 -19 24 -31c0 -14 -18 -67 -68 -202c-66 -175 -111 -322 -141 -460c-32 -150 -34 -166 -23 -177c8 -8 7 -16 -2 -25s-19 -10 -28 -3v0zM405 758c-7 8 -5 14 16 50c23 41 45 64 59 64c11 0 24 -12 24 -22c0 -15 -56 -80 -79 -92c-11 -6 -14 -6 -20 0v0z" />
    <glyph glyph-name="Ncaron" unicode="&#x147;" horiz-adv-x="467" 
d="M333 -206c-14 11 -18 31 -18 89c0 79 10 140 47 281c34 134 109 341 159 441l10 20l-14 -14c-20 -18 -76 -86 -109 -130c-66 -90 -157 -239 -212 -350c-33 -64 -85 -181 -85 -189c0 -4 -4 -11 -9 -17c-8 -7 -13 -9 -24 -8c-12 1 -16 3 -22 15c-6 11 -6 19 -5 55
c2 40 13 119 22 167c11 53 43 156 68 214c13 31 13 33 7 40c-13 14 0 49 42 109c35 49 49 63 63 63c12 0 18 -4 22 -19c3 -12 -14 -64 -52 -159c-15 -36 -32 -80 -38 -98c-18 -49 -60 -200 -79 -286c-4 -15 5 2 25 46c56 130 164 316 253 434c83 110 164 194 187 194
c10 0 24 -19 24 -31c0 -14 -18 -67 -68 -202c-66 -175 -111 -322 -141 -460c-32 -150 -34 -166 -23 -177c8 -8 7 -16 -2 -25s-19 -10 -28 -3v0zM396 756c-22 15 -37 31 -48 53c-9 18 -9 24 -1 32c14 14 38 1 63 -36c7 -11 14 -19 15 -19c2 0 12 13 24 29c12 17 25 33 29 37
c10 9 21 7 23 -3c1 -8 -52 -92 -64 -101c-10 -8 -21 -6 -41 8v0z" />
    <glyph glyph-name="Ncommaaccent" unicode="&#x145;" horiz-adv-x="467" 
d="M149 -183c-7 7 -6 9 9 32l15 22l-8 6c-19 15 -20 37 -3 51c14 10 26 9 38 -5c17 -21 10 -62 -18 -93c-16 -18 -25 -21 -33 -13zM333 -206c-14 11 -18 31 -18 89c0 79 10 140 47 281c34 134 109 341 159 441l10 20l-14 -14c-20 -18 -76 -86 -109 -130
c-66 -90 -157 -239 -212 -350c-33 -64 -85 -181 -85 -189c0 -4 -4 -11 -9 -17c-8 -7 -13 -9 -24 -8c-12 1 -16 3 -22 15c-6 11 -6 19 -5 55c2 40 13 119 22 167c11 53 43 156 68 214c13 31 13 33 7 40c-13 14 0 49 42 109c35 49 49 63 63 63c12 0 18 -4 22 -19
c3 -12 -14 -64 -52 -159c-15 -36 -32 -80 -38 -98c-18 -49 -60 -200 -79 -286c-4 -15 5 2 25 46c56 130 164 316 253 434c83 110 164 194 187 194c10 0 24 -19 24 -31c0 -14 -18 -67 -68 -202c-66 -175 -111 -322 -141 -460c-32 -150 -34 -166 -23 -177c8 -8 7 -16 -2 -25
s-19 -10 -28 -3v0z" />
    <glyph glyph-name="Ntilde" unicode="&#xd1;" horiz-adv-x="467" 
d="M333 -206c-14 11 -18 31 -18 89c0 79 10 140 47 281c34 134 109 341 159 441l10 20l-14 -14c-20 -18 -76 -86 -109 -130c-66 -90 -157 -239 -212 -350c-33 -64 -85 -181 -85 -189c0 -4 -4 -11 -9 -17c-8 -7 -13 -9 -24 -8c-12 1 -16 3 -22 15c-6 11 -6 19 -5 55
c2 40 13 119 22 167c11 53 43 156 68 214c13 31 13 33 7 40c-13 14 0 49 42 109c35 49 49 63 63 63c12 0 18 -4 22 -19c3 -12 -14 -64 -52 -159c-15 -36 -32 -80 -38 -98c-18 -49 -60 -200 -79 -286c-4 -15 5 2 25 46c56 130 164 316 253 434c83 110 164 194 187 194
c10 0 24 -19 24 -31c0 -14 -18 -67 -68 -202c-66 -175 -111 -322 -141 -460c-32 -150 -34 -166 -23 -177c8 -8 7 -16 -2 -25s-19 -10 -28 -3v0zM445 738c-6 6 -15 18 -20 27c-5 10 -10 17 -11 17c-5 0 -16 -13 -16 -20c0 -10 -15 -18 -23 -14c-16 8 -5 40 20 59
c27 20 53 10 68 -27c12 -26 22 -21 38 15c7 15 10 18 17 17c8 -1 9 -3 8 -21c-1 -49 -49 -80 -81 -53z" />
    <glyph glyph-name="Oacute" unicode="&#xd3;" horiz-adv-x="494" 
d="M365 659v0h13c19 -2 24 -4 33 -14c14 -16 15 -33 2 -42c-5 -3 -11 -5 -14 -3c-7 5 -3 -3 8 -15c25 -26 51 -69 63 -104c43 -126 22 -290 -59 -457c-51 -106 -98 -156 -163 -173c-28 -7 -57 -7 -78 1c-37 13 -76 62 -95 120c-20 61 -20 156 0 256c17 85 36 141 73 218
c27 56 50 91 86 129c12 14 22 27 21 28s0 6 2 10c5 9 27 21 46 25c8 2 22 7 33 13s18 8 29 8zM348 584h-1c-8 -1 -18 -11 -41 -36c-65 -68 -114 -166 -148 -297c-38 -145 -38 -250 0 -316c17 -30 31 -40 58 -40c13 0 30 2 38 5c21 6 53 33 75 63c26 33 69 122 87 174
c25 75 31 112 31 192c0 75 -3 100 -21 149c-10 27 -35 65 -58 91c-9 10 -14 15 -20 15zM352 724c-7 8 -5 14 16 50c23 41 45 64 59 64c11 0 24 -12 24 -22c0 -15 -56 -80 -79 -92c-11 -6 -14 -6 -20 0v0z" />
    <glyph glyph-name="Obreve" unicode="&#x14e;" horiz-adv-x="494" 
d="M365 659v0h13c19 -2 24 -4 33 -14c14 -16 15 -33 2 -42c-5 -3 -11 -5 -14 -3c-7 5 -3 -3 8 -15c25 -26 51 -69 63 -104c43 -126 22 -290 -59 -457c-51 -106 -98 -156 -163 -173c-28 -7 -57 -7 -78 1c-37 13 -76 62 -95 120c-20 61 -20 156 0 256c17 85 36 141 73 218
c27 56 50 91 86 129c12 14 22 27 21 28s0 6 2 10c5 9 27 21 46 25c8 2 22 7 33 13s18 8 29 8zM348 584h-1c-8 -1 -18 -11 -41 -36c-65 -68 -114 -166 -148 -297c-38 -145 -38 -250 0 -316c17 -30 31 -40 58 -40c13 0 30 2 38 5c21 6 53 33 75 63c26 33 69 122 87 174
c25 75 31 112 31 192c0 75 -3 100 -21 149c-10 27 -35 65 -58 91c-9 10 -14 15 -20 15zM319 731c-8 9 -13 16 -23 33c-9 18 11 27 18 19c7 -10 11 -14 28 -35c25 -33 30 -17 54 8c14 16 28 31 33 34c10 8 26 -4 20 -13c-16 -21 -21 -32 -32 -42c-53 -58 -77 -26 -98 -4z" />
    <glyph glyph-name="Ocircumflex" unicode="&#xd4;" horiz-adv-x="494" 
d="M365 659v0h13c19 -2 24 -4 33 -14c14 -16 15 -33 2 -42c-5 -3 -11 -5 -14 -3c-7 5 -3 -3 8 -15c25 -26 51 -69 63 -104c43 -126 22 -290 -59 -457c-51 -106 -98 -156 -163 -173c-28 -7 -57 -7 -78 1c-37 13 -76 62 -95 120c-20 61 -20 156 0 256c17 85 36 141 73 218
c27 56 50 91 86 129c12 14 22 27 21 28s0 6 2 10c5 9 27 21 46 25c8 2 22 7 33 13s18 8 29 8zM348 584h-1c-8 -1 -18 -11 -41 -36c-65 -68 -114 -166 -148 -297c-38 -145 -38 -250 0 -316c17 -30 31 -40 58 -40c13 0 30 2 38 5c21 6 53 33 75 63c26 33 69 122 87 174
c25 75 31 112 31 192c0 75 -3 100 -21 149c-10 27 -35 65 -58 91c-9 10 -14 15 -20 15zM301 700c-9 9 15 57 47 94c14 15 18 18 30 18s17 -3 32 -18c23 -25 40 -58 37 -74c-2 -7 -5 -15 -7 -18c-6 -7 -26 -7 -26 0c0 3 -3 8 -6 11c-4 2 -13 16 -22 31c-8 14 -17 25 -18 24
c-2 -1 -14 -17 -26 -36c-16 -26 -24 -35 -30 -35c-5 0 -10 1 -11 3v0z" />
    <glyph glyph-name="Odieresis" unicode="&#xd6;" horiz-adv-x="494" 
d="M365 659v0h13c19 -2 24 -4 33 -14c14 -16 15 -33 2 -42c-5 -3 -11 -5 -14 -3c-7 5 -3 -3 8 -15c25 -26 51 -69 63 -104c43 -126 22 -290 -59 -457c-51 -106 -98 -156 -163 -173c-28 -7 -57 -7 -78 1c-37 13 -76 62 -95 120c-20 61 -20 156 0 256c17 85 36 141 73 218
c27 56 50 91 86 129c12 14 22 27 21 28s0 6 2 10c5 9 27 21 46 25c8 2 22 7 33 13s18 8 29 8zM348 584h-1c-8 -1 -18 -11 -41 -36c-65 -68 -114 -166 -148 -297c-38 -145 -38 -250 0 -316c17 -30 31 -40 58 -40c13 0 30 2 38 5c21 6 53 33 75 63c26 33 69 122 87 174
c25 75 31 112 31 192c0 75 -3 100 -21 149c-10 27 -35 65 -58 91c-9 10 -14 15 -20 15zM336 753c11 0 24 -12 29 -26c2 -6 0 -11 -9 -20c-14 -13 -28 -15 -39 -4c-16 16 -3 50 19 50zM432 747c15 -7 20 -19 13 -33c-9 -18 -33 -25 -45 -12v0c-7 7 -8 28 -1 36
c9 13 21 16 33 9z" />
    <glyph glyph-name="Ograve" unicode="&#xd2;" horiz-adv-x="494" 
d="M365 659v0h13c19 -2 24 -4 33 -14c14 -16 15 -33 2 -42c-5 -3 -11 -5 -14 -3c-7 5 -3 -3 8 -15c25 -26 51 -69 63 -104c43 -126 22 -290 -59 -457c-51 -106 -98 -156 -163 -173c-28 -7 -57 -7 -78 1c-37 13 -76 62 -95 120c-20 61 -20 156 0 256c17 85 36 141 73 218
c27 56 50 91 86 129c12 14 22 27 21 28s0 6 2 10c5 9 27 21 46 25c8 2 22 7 33 13s18 8 29 8zM348 584h-1c-8 -1 -18 -11 -41 -36c-65 -68 -114 -166 -148 -297c-38 -145 -38 -250 0 -316c17 -30 31 -40 58 -40c13 0 30 2 38 5c21 6 53 33 75 63c26 33 69 122 87 174
c25 75 31 112 31 192c0 75 -3 100 -21 149c-10 27 -35 65 -58 91c-9 10 -14 15 -20 15zM357 714c-41 23 -70 47 -71 58c-3 28 21 35 52 14c24 -16 66 -59 66 -66c0 -11 -7 -22 -14 -21c-4 0 -18 7 -33 15v0z" />
    <glyph glyph-name="Ohungarumlaut" unicode="&#x150;" horiz-adv-x="494" 
d="M365 659v0h13c19 -2 24 -4 33 -14c14 -16 15 -33 2 -42c-5 -3 -11 -5 -14 -3c-7 5 -3 -3 8 -15c25 -26 51 -69 63 -104c43 -126 22 -290 -59 -457c-51 -106 -98 -156 -163 -173c-28 -7 -57 -7 -78 1c-37 13 -76 62 -95 120c-20 61 -20 156 0 256c17 85 36 141 73 218
c27 56 50 91 86 129c12 14 22 27 21 28s0 6 2 10c5 9 27 21 46 25c8 2 22 7 33 13s18 8 29 8zM348 584h-1c-8 -1 -18 -11 -41 -36c-65 -68 -114 -166 -148 -297c-38 -145 -38 -250 0 -316c17 -30 31 -40 58 -40c13 0 30 2 38 5c21 6 53 33 75 63c26 33 69 122 87 174
c25 75 31 112 31 192c0 75 -3 100 -21 149c-10 27 -35 65 -58 91c-9 10 -14 15 -20 15zM323 702c-7 8 -5 14 16 50c23 41 45 64 59 64c11 0 24 -12 24 -22c0 -15 -56 -80 -79 -92c-11 -6 -14 -6 -20 0v0zM403 702c-7 8 -5 14 16 50c23 41 45 64 59 64c11 0 24 -12 24 -22
c0 -15 -56 -80 -79 -92c-11 -6 -14 -6 -20 0v0z" />
    <glyph glyph-name="Oslashacute" unicode="&#x1fe;" horiz-adv-x="494" 
d="M194 337v0v0zM492 548c17 0 27 -14 23 -30c-2 -9 -14 -31 -39 -68c28 -120 4 -269 -70 -420c-51 -106 -98 -156 -163 -173c-28 -7 -57 -7 -78 1c-26 9 -53 36 -73 71c-12 -15 -20 -26 -23 -28c-12 -11 -28 -13 -37 -3c-3 4 -6 12 -6 17c0 10 3 16 42 72
c-17 61 -17 152 2 247c17 85 36 141 73 218c27 56 50 91 86 129c12 14 22 27 21 28s0 6 2 10c5 9 27 21 46 25c8 2 22 7 33 13s18 8 29 8h13c19 -2 24 -4 33 -14c14 -16 15 -33 2 -42c-5 -3 -11 -5 -14 -3c-7 5 -3 -3 8 -15c18 -19 36 -46 50 -72c20 23 29 29 40 29z
M153 257c-19 -73 -28 -136 -28 -189c6 9 13 19 20 29l71 100l132 186c6 7 31 41 56 74c7 9 13 17 18 24c0 1 0 2 -1 3c-10 27 -35 65 -58 91c-9 10 -14 15 -20 15h-1c-8 -1 -18 -11 -41 -36c-65 -68 -114 -166 -148 -297zM442 335c0 27 0 47 -1 65c-24 -34 -55 -76 -93 -127
l-56 -76l-36 -48l-41 -55c-24 -33 -53 -73 -80 -108c5 -17 11 -32 18 -45c17 -30 31 -40 58 -40c13 0 30 2 38 5c21 6 53 33 75 63c26 33 69 122 87 174c25 75 31 112 31 192zM352 724c-7 8 -5 14 16 50c23 41 45 64 59 64c11 0 24 -12 24 -22c0 -15 -56 -80 -79 -92
c-11 -6 -14 -6 -20 0v0z" />
    <glyph glyph-name="Otilde" unicode="&#xd5;" horiz-adv-x="494" 
d="M365 659v0h13c19 -2 24 -4 33 -14c14 -16 15 -33 2 -42c-5 -3 -11 -5 -14 -3c-7 5 -3 -3 8 -15c25 -26 51 -69 63 -104c43 -126 22 -290 -59 -457c-51 -106 -98 -156 -163 -173c-28 -7 -57 -7 -78 1c-37 13 -76 62 -95 120c-20 61 -20 156 0 256c17 85 36 141 73 218
c27 56 50 91 86 129c12 14 22 27 21 28s0 6 2 10c5 9 27 21 46 25c8 2 22 7 33 13s18 8 29 8zM348 584h-1c-8 -1 -18 -11 -41 -36c-65 -68 -114 -166 -148 -297c-38 -145 -38 -250 0 -316c17 -30 31 -40 58 -40c13 0 30 2 38 5c21 6 53 33 75 63c26 33 69 122 87 174
c25 75 31 112 31 192c0 75 -3 100 -21 149c-10 27 -35 65 -58 91c-9 10 -14 15 -20 15zM392 704c-6 6 -15 18 -20 27c-5 10 -10 17 -11 17c-5 0 -16 -13 -16 -20c0 -10 -15 -18 -23 -14c-16 8 -5 40 20 59c27 20 53 10 68 -27c12 -26 22 -21 38 15c7 15 10 18 17 17
c8 -1 9 -3 8 -21c-1 -49 -49 -80 -81 -53z" />
    <glyph glyph-name="Racute" unicode="&#x154;" horiz-adv-x="474" 
d="M99 -200c-8 9 -9 13 -10 51c-2 42 3 78 18 131c4 13 14 53 23 87l17 63l-9 6c-9 6 -11 24 -3 31c2 3 9 5 14 5c9 0 11 2 21 33c25 77 66 183 94 245c9 18 16 34 15 35c-3 3 -28 -30 -37 -47c-9 -19 -18 -23 -28 -14c-9 8 -9 17 3 43c8 15 23 34 55 67c40 40 46 45 58 45
c27 0 40 -28 31 -66c-3 -12 -17 -52 -32 -90c-47 -122 -96 -260 -93 -262c4 -5 44 9 76 25c64 32 104 64 142 116c63 84 86 161 70 234c-11 52 -32 70 -89 78c-54 8 -121 -13 -184 -57c-54 -38 -127 -118 -157 -171c-14 -26 -29 -74 -29 -96c0 -16 1 -19 8 -19
c9 0 13 -8 10 -21c-4 -13 -16 -19 -28 -14c-34 16 -33 87 4 164c35 72 125 167 206 216c88 54 187 63 258 25c44 -24 68 -80 69 -156c0 -49 -8 -81 -31 -131c-55 -115 -157 -196 -299 -238c-4 -1 -3 -5 4 -14c5 -7 16 -27 26 -44c27 -50 60 -105 86 -142
c39 -54 49 -64 72 -67c18 -2 23 -11 12 -23c-9 -11 -23 -9 -46 4c-40 23 -88 86 -148 194c-34 62 -44 79 -49 79c-2 0 -8 -16 -14 -36c-14 -48 -18 -61 -38 -128c-28 -88 -29 -98 -20 -98c7 0 18 -12 18 -22c0 -4 -6 -13 -14 -19c-18 -16 -38 -17 -52 -2v0zM424 724
c-7 8 -5 14 16 50c23 41 45 64 59 64c11 0 24 -12 24 -22c0 -15 -56 -80 -79 -92c-11 -6 -14 -6 -20 0v0z" />
    <glyph glyph-name="Rcaron" unicode="&#x158;" horiz-adv-x="474" 
d="M99 -200c-8 9 -9 13 -10 51c-2 42 3 78 18 131c4 13 14 53 23 87l17 63l-9 6c-9 6 -11 24 -3 31c2 3 9 5 14 5c9 0 11 2 21 33c25 77 66 183 94 245c9 18 16 34 15 35c-3 3 -28 -30 -37 -47c-9 -19 -18 -23 -28 -14c-9 8 -9 17 3 43c8 15 23 34 55 67c40 40 46 45 58 45
c27 0 40 -28 31 -66c-3 -12 -17 -52 -32 -90c-47 -122 -96 -260 -93 -262c4 -5 44 9 76 25c64 32 104 64 142 116c63 84 86 161 70 234c-11 52 -32 70 -89 78c-54 8 -121 -13 -184 -57c-54 -38 -127 -118 -157 -171c-14 -26 -29 -74 -29 -96c0 -16 1 -19 8 -19
c9 0 13 -8 10 -21c-4 -13 -16 -19 -28 -14c-34 16 -33 87 4 164c35 72 125 167 206 216c88 54 187 63 258 25c44 -24 68 -80 69 -156c0 -49 -8 -81 -31 -131c-55 -115 -157 -196 -299 -238c-4 -1 -3 -5 4 -14c5 -7 16 -27 26 -44c27 -50 60 -105 86 -142
c39 -54 49 -64 72 -67c18 -2 23 -11 12 -23c-9 -11 -23 -9 -46 4c-40 23 -88 86 -148 194c-34 62 -44 79 -49 79c-2 0 -8 -16 -14 -36c-14 -48 -18 -61 -38 -128c-28 -88 -29 -98 -20 -98c7 0 18 -12 18 -22c0 -4 -6 -13 -14 -19c-18 -16 -38 -17 -52 -2v0zM415 722
c-22 15 -37 31 -48 53c-9 18 -9 24 -1 32c14 14 38 1 63 -36c7 -11 14 -19 15 -19c2 0 12 13 24 29c12 17 25 33 29 37c10 9 21 7 23 -3c1 -8 -52 -92 -64 -101c-10 -8 -21 -6 -41 8v0z" />
    <glyph glyph-name="Rcommaaccent" unicode="&#x156;" horiz-adv-x="474" 
d="M209 -247c-7 7 -6 9 9 32l15 22l-8 6c-19 15 -20 37 -3 51c14 10 26 9 38 -5c17 -21 10 -62 -18 -93c-16 -18 -25 -21 -33 -13zM99 -200c-8 9 -9 13 -10 51c-2 42 3 78 18 131c4 13 14 53 23 87l17 63l-9 6c-9 6 -11 24 -3 31c2 3 9 5 14 5c9 0 11 2 21 33
c25 77 66 183 94 245c9 18 16 34 15 35c-3 3 -28 -30 -37 -47c-9 -19 -18 -23 -28 -14c-9 8 -9 17 3 43c8 15 23 34 55 67c40 40 46 45 58 45c27 0 40 -28 31 -66c-3 -12 -17 -52 -32 -90c-47 -122 -96 -260 -93 -262c4 -5 44 9 76 25c64 32 104 64 142 116
c63 84 86 161 70 234c-11 52 -32 70 -89 78c-54 8 -121 -13 -184 -57c-54 -38 -127 -118 -157 -171c-14 -26 -29 -74 -29 -96c0 -16 1 -19 8 -19c9 0 13 -8 10 -21c-4 -13 -16 -19 -28 -14c-34 16 -33 87 4 164c35 72 125 167 206 216c88 54 187 63 258 25
c44 -24 68 -80 69 -156c0 -49 -8 -81 -31 -131c-55 -115 -157 -196 -299 -238c-4 -1 -3 -5 4 -14c5 -7 16 -27 26 -44c27 -50 60 -105 86 -142c39 -54 49 -64 72 -67c18 -2 23 -11 12 -23c-9 -11 -23 -9 -46 4c-40 23 -88 86 -148 194c-34 62 -44 79 -49 79
c-2 0 -8 -16 -14 -36c-14 -48 -18 -61 -38 -128c-28 -88 -29 -98 -20 -98c7 0 18 -12 18 -22c0 -4 -6 -13 -14 -19c-18 -16 -38 -17 -52 -2v0z" />
    <glyph glyph-name="Sacute" unicode="&#x15a;" horiz-adv-x="416" 
d="M76 -215c-11 6 -17 20 -15 34c3 19 46 84 88 132c23 27 32 33 40 29c13 -4 11 -14 -10 -37c-43 -49 -88 -118 -82 -124c8 -8 75 21 126 55c38 25 80 68 94 95c13 27 11 43 -8 59c-19 17 -27 20 -92 41c-99 31 -128 49 -147 88c-10 23 -12 60 -3 94c18 76 90 184 190 285
c73 72 142 118 199 130c34 7 63 -7 74 -36c22 -59 -57 -211 -170 -326c-32 -33 -42 -41 -50 -40c-17 2 -13 15 15 48c91 104 154 211 161 275c3 27 -1 31 -21 24c-40 -14 -87 -50 -156 -122c-55 -57 -97 -109 -133 -167c-36 -57 -49 -88 -52 -121c-2 -24 -2 -26 10 -39
c13 -15 34 -26 104 -53c53 -21 74 -33 94 -50c61 -53 24 -140 -92 -220c-48 -33 -114 -60 -144 -60c-5 0 -14 3 -20 6v0zM480 727c-7 8 -5 14 16 50c23 41 45 64 59 64c11 0 24 -12 24 -22c0 -15 -56 -80 -79 -92c-11 -6 -14 -6 -20 0v0z" />
    <glyph glyph-name="Scaron" unicode="&#x160;" horiz-adv-x="416" 
d="M76 -215c-11 6 -17 20 -15 34c3 19 46 84 88 132c23 27 32 33 40 29c13 -4 11 -14 -10 -37c-43 -49 -88 -118 -82 -124c8 -8 75 21 126 55c38 25 80 68 94 95c13 27 11 43 -8 59c-19 17 -27 20 -92 41c-99 31 -128 49 -147 88c-10 23 -12 60 -3 94c18 76 90 184 190 285
c73 72 142 118 199 130c34 7 63 -7 74 -36c22 -59 -57 -211 -170 -326c-32 -33 -42 -41 -50 -40c-17 2 -13 15 15 48c91 104 154 211 161 275c3 27 -1 31 -21 24c-40 -14 -87 -50 -156 -122c-55 -57 -97 -109 -133 -167c-36 -57 -49 -88 -52 -121c-2 -24 -2 -26 10 -39
c13 -15 34 -26 104 -53c53 -21 74 -33 94 -50c61 -53 24 -140 -92 -220c-48 -33 -114 -60 -144 -60c-5 0 -14 3 -20 6v0zM471 725c-22 15 -37 31 -48 53c-9 18 -9 24 -1 32c14 14 38 1 63 -36c7 -11 14 -19 15 -19c2 0 12 13 24 29c12 17 25 33 29 37c10 9 21 7 23 -3
c1 -8 -52 -92 -64 -101c-10 -8 -21 -6 -41 8v0z" />
    <glyph glyph-name="Scedilla" unicode="&#x15e;" horiz-adv-x="416" 
d="M56 -362c-27 6 -43 27 -29 38c5 4 7 4 15 0c24 -13 64 2 69 25c4 15 -1 18 -26 16c-39 -4 -46 7 -28 47c5 11 9 20 13 26c-7 7 -11 18 -9 29c3 19 46 84 88 132c23 27 32 33 40 29c13 -4 11 -14 -10 -37c-43 -49 -88 -118 -82 -124c8 -8 75 21 126 55c38 25 80 68 94 95
c13 27 11 43 -8 59c-19 17 -27 20 -92 41c-99 31 -128 49 -147 88c-10 23 -12 60 -3 94c18 76 90 184 190 285c73 72 142 118 199 130c34 7 63 -7 74 -36c22 -59 -57 -211 -170 -326c-32 -33 -42 -41 -50 -40c-17 2 -13 15 15 48c91 104 154 211 161 275c3 27 -1 31 -21 24
c-40 -14 -87 -50 -156 -122c-55 -57 -97 -109 -133 -167c-36 -57 -49 -88 -52 -121c-2 -24 -2 -26 10 -39c13 -15 34 -26 104 -53c53 -21 74 -33 94 -50c61 -53 24 -140 -92 -220c-42 -29 -98 -53 -132 -59l-4 -10c-6 -12 -10 -22 -10 -22c0 -1 6 -1 13 -1
c16 -1 31 -10 39 -25c21 -42 -38 -97 -90 -84z" />
    <glyph glyph-name="Scircumflex" unicode="&#x15c;" horiz-adv-x="416" 
d="M76 -215c-11 6 -17 20 -15 34c3 19 46 84 88 132c23 27 32 33 40 29c13 -4 11 -14 -10 -37c-43 -49 -88 -118 -82 -124c8 -8 75 21 126 55c38 25 80 68 94 95c13 27 11 43 -8 59c-19 17 -27 20 -92 41c-99 31 -128 49 -147 88c-10 23 -12 60 -3 94c18 76 90 184 190 285
c73 72 142 118 199 130c34 7 63 -7 74 -36c22 -59 -57 -211 -170 -326c-32 -33 -42 -41 -50 -40c-17 2 -13 15 15 48c91 104 154 211 161 275c3 27 -1 31 -21 24c-40 -14 -87 -50 -156 -122c-55 -57 -97 -109 -133 -167c-36 -57 -49 -88 -52 -121c-2 -24 -2 -26 10 -39
c13 -15 34 -26 104 -53c53 -21 74 -33 94 -50c61 -53 24 -140 -92 -220c-48 -33 -114 -60 -144 -60c-5 0 -14 3 -20 6v0zM429 703c-9 9 15 57 47 94c14 15 18 18 30 18s17 -3 32 -18c23 -25 40 -58 37 -74c-2 -7 -5 -15 -7 -18c-6 -7 -26 -7 -26 0c0 3 -3 8 -6 11
c-4 2 -13 16 -22 31c-8 14 -17 25 -18 24c-2 -1 -14 -17 -26 -36c-16 -26 -24 -35 -30 -35c-5 0 -10 1 -11 3v0z" />
    <glyph glyph-name="Scommaaccent" unicode="&#x218;" horiz-adv-x="416" 
d="M77 -358c-7 7 -6 9 9 32l15 22l-8 6c-19 15 -20 37 -3 51c14 10 26 9 38 -5c17 -21 10 -62 -18 -93c-16 -18 -25 -21 -33 -13zM76 -215c-11 6 -17 20 -15 34c3 19 46 84 88 132c23 27 32 33 40 29c13 -4 11 -14 -10 -37c-43 -49 -88 -118 -82 -124c8 -8 75 21 126 55
c38 25 80 68 94 95c13 27 11 43 -8 59c-19 17 -27 20 -92 41c-99 31 -128 49 -147 88c-10 23 -12 60 -3 94c18 76 90 184 190 285c73 72 142 118 199 130c34 7 63 -7 74 -36c22 -59 -57 -211 -170 -326c-32 -33 -42 -41 -50 -40c-17 2 -13 15 15 48c91 104 154 211 161 275
c3 27 -1 31 -21 24c-40 -14 -87 -50 -156 -122c-55 -57 -97 -109 -133 -167c-36 -57 -49 -88 -52 -121c-2 -24 -2 -26 10 -39c13 -15 34 -26 104 -53c53 -21 74 -33 94 -50c61 -53 24 -140 -92 -220c-48 -33 -114 -60 -144 -60c-5 0 -14 3 -20 6v0z" />
    <glyph glyph-name="Tcaron" unicode="&#x164;" horiz-adv-x="307" 
d="M131 -218c-9 9 -9 12 -9 47c0 38 7 105 15 142c7 32 27 109 37 143c6 18 11 38 13 45c8 31 71 213 110 316c11 30 20 56 19 57c-2 2 -14 -20 -14 -27c0 -8 -14 -12 -21 -6c-9 7 -7 26 6 50l11 21l-20 -3c-101 -18 -240 -55 -269 -73c-14 -8 -24 -7 -28 5
c-9 28 69 56 278 99c39 8 71 15 71 16c1 1 12 15 25 31c18 22 27 30 34 30c13 0 25 -17 25 -35c0 -9 1 -14 3 -13c1 1 33 4 70 8c78 7 215 6 238 -2c18 -7 30 -19 30 -31c0 -13 -9 -21 -29 -27c-25 -7 -41 6 -26 21c3 4 5 7 4 8c-7 8 -175 2 -254 -8l-50 -6l-19 -55
c-53 -156 -136 -401 -137 -409c-2 -5 -17 -64 -35 -131c-18 -66 -35 -131 -37 -143c-5 -21 -4 -23 3 -30c11 -10 10 -22 -3 -37c-14 -15 -28 -16 -41 -3v0zM371 735c-22 15 -37 31 -48 53c-9 18 -9 24 -1 32c14 14 38 1 63 -36c7 -11 14 -19 15 -19c2 0 12 13 24 29
c12 17 25 33 29 37c10 9 21 7 23 -3c1 -8 -52 -92 -64 -101c-10 -8 -21 -6 -41 8v0z" />
    <glyph glyph-name="Tcommaaccent" unicode="&#x162;" horiz-adv-x="307" 
d="M115 -379c-7 7 -6 9 9 32l15 22l-8 6c-19 15 -20 37 -3 51c14 10 26 9 38 -5c17 -21 10 -62 -18 -93c-16 -18 -25 -21 -33 -13zM131 -218c-9 9 -9 12 -9 47c0 38 7 105 15 142c7 32 27 109 37 143c6 18 11 38 13 45c8 31 71 213 110 316c11 30 20 56 19 57
c-2 2 -14 -20 -14 -27c0 -8 -14 -12 -21 -6c-9 7 -7 26 6 50l11 21l-20 -3c-101 -18 -240 -55 -269 -73c-14 -8 -24 -7 -28 5c-9 28 69 56 278 99c39 8 71 15 71 16c1 1 12 15 25 31c18 22 27 30 34 30c13 0 25 -17 25 -35c0 -9 1 -14 3 -13c1 1 33 4 70 8
c78 7 215 6 238 -2c18 -7 30 -19 30 -31c0 -13 -9 -21 -29 -27c-25 -7 -41 6 -26 21c3 4 5 7 4 8c-7 8 -175 2 -254 -8l-50 -6l-19 -55c-53 -156 -136 -401 -137 -409c-2 -5 -17 -64 -35 -131c-18 -66 -35 -131 -37 -143c-5 -21 -4 -23 3 -30c11 -10 10 -22 -3 -37
c-14 -15 -28 -16 -41 -3v0z" />
    <glyph glyph-name="Uacute" unicode="&#xda;" horiz-adv-x="405" 
d="M310 -144c-30 17 -41 98 -28 207c6 48 7 53 23 132c11 49 11 61 1 36c-23 -57 -80 -172 -102 -206c-36 -54 -77 -91 -102 -91c-11 0 -31 16 -38 31c-3 5 -8 26 -11 47c-12 95 26 270 97 448c19 46 20 50 14 56c-4 3 -7 8 -7 10c0 7 19 39 32 56c7 9 21 27 32 41
c21 28 32 34 44 23c13 -12 13 -13 -38 -145c-58 -149 -98 -294 -114 -415c-6 -43 -8 -109 -3 -109c14 0 60 55 89 105c33 59 169 352 197 424c36 94 64 147 80 152c5 2 12 0 18 -4c11 -7 12 -20 2 -48c-60 -168 -71 -202 -83 -245c-5 -18 -14 -49 -19 -68
c-24 -81 -46 -196 -62 -318c-7 -58 -5 -77 9 -84c7 -3 11 -8 11 -15c3 -18 -23 -31 -42 -20v0zM346 719c-7 8 -5 14 16 50c23 41 45 64 59 64c11 0 24 -12 24 -22c0 -15 -56 -80 -79 -92c-11 -6 -14 -6 -20 0v0z" />
    <glyph glyph-name="Ubreve" unicode="&#x16c;" horiz-adv-x="405" 
d="M310 -144c-30 17 -41 98 -28 207c6 48 7 53 23 132c11 49 11 61 1 36c-23 -57 -80 -172 -102 -206c-36 -54 -77 -91 -102 -91c-11 0 -31 16 -38 31c-3 5 -8 26 -11 47c-12 95 26 270 97 448c19 46 20 50 14 56c-4 3 -7 8 -7 10c0 7 19 39 32 56c7 9 21 27 32 41
c21 28 32 34 44 23c13 -12 13 -13 -38 -145c-58 -149 -98 -294 -114 -415c-6 -43 -8 -109 -3 -109c14 0 60 55 89 105c33 59 169 352 197 424c36 94 64 147 80 152c5 2 12 0 18 -4c11 -7 12 -20 2 -48c-60 -168 -71 -202 -83 -245c-5 -18 -14 -49 -19 -68
c-24 -81 -46 -196 -62 -318c-7 -58 -5 -77 9 -84c7 -3 11 -8 11 -15c3 -18 -23 -31 -42 -20v0zM313 726c-8 9 -13 16 -23 33c-9 18 11 27 18 19c7 -10 11 -14 28 -35c25 -33 30 -17 54 8c14 16 28 31 33 34c10 8 26 -4 20 -13c-16 -21 -21 -32 -32 -42
c-53 -58 -77 -26 -98 -4z" />
    <glyph glyph-name="Ucircumflex" unicode="&#xdb;" horiz-adv-x="405" 
d="M310 -144c-30 17 -41 98 -28 207c6 48 7 53 23 132c11 49 11 61 1 36c-23 -57 -80 -172 -102 -206c-36 -54 -77 -91 -102 -91c-11 0 -31 16 -38 31c-3 5 -8 26 -11 47c-12 95 26 270 97 448c19 46 20 50 14 56c-4 3 -7 8 -7 10c0 7 19 39 32 56c7 9 21 27 32 41
c21 28 32 34 44 23c13 -12 13 -13 -38 -145c-58 -149 -98 -294 -114 -415c-6 -43 -8 -109 -3 -109c14 0 60 55 89 105c33 59 169 352 197 424c36 94 64 147 80 152c5 2 12 0 18 -4c11 -7 12 -20 2 -48c-60 -168 -71 -202 -83 -245c-5 -18 -14 -49 -19 -68
c-24 -81 -46 -196 -62 -318c-7 -58 -5 -77 9 -84c7 -3 11 -8 11 -15c3 -18 -23 -31 -42 -20v0zM295 695c-9 9 15 57 47 94c14 15 18 18 30 18s17 -3 32 -18c23 -25 40 -58 37 -74c-2 -7 -5 -15 -7 -18c-6 -7 -26 -7 -26 0c0 3 -3 8 -6 11c-4 2 -13 16 -22 31
c-8 14 -17 25 -18 24c-2 -1 -14 -17 -26 -36c-16 -26 -24 -35 -30 -35c-5 0 -10 1 -11 3v0z" />
    <glyph glyph-name="Udieresis" unicode="&#xdc;" horiz-adv-x="405" 
d="M310 -144v0c19 -11 45 2 42 20c0 7 -4 12 -11 15c-14 7 -16 26 -9 84c16 122 38 237 62 318c5 19 14 50 19 68c12 43 23 77 83 245c10 28 9 41 -2 48c-6 4 -13 6 -18 4c-16 -5 -44 -58 -80 -152c-28 -72 -164 -365 -197 -424c-29 -50 -75 -105 -89 -105c-5 0 -3 66 3 109
c16 121 56 266 114 415c51 132 51 133 38 145c-12 11 -23 5 -44 -23c-11 -14 -25 -32 -32 -41c-13 -17 -32 -49 -32 -56c0 -2 3 -7 7 -10c6 -6 5 -10 -14 -56c-71 -178 -109 -353 -97 -448c3 -21 8 -42 11 -47c7 -15 27 -31 38 -31c25 0 66 37 102 91c22 34 79 149 102 206
c10 25 10 13 -1 -36c-16 -79 -17 -84 -23 -132c-13 -109 -2 -190 28 -207zM330 748c11 0 24 -12 29 -26c2 -6 0 -11 -9 -20c-14 -13 -28 -15 -39 -4c-16 16 -3 50 19 50zM426 742c15 -7 20 -19 13 -33c-9 -18 -33 -25 -45 -12v0c-7 7 -8 28 -1 36c9 13 21 16 33 9z" />
    <glyph glyph-name="Ugrave" unicode="&#xd9;" horiz-adv-x="405" 
d="M310 -144c-30 17 -41 98 -28 207c6 48 7 53 23 132c11 49 11 61 1 36c-23 -57 -80 -172 -102 -206c-36 -54 -77 -91 -102 -91c-11 0 -31 16 -38 31c-3 5 -8 26 -11 47c-12 95 26 270 97 448c19 46 20 50 14 56c-4 3 -7 8 -7 10c0 7 19 39 32 56c7 9 21 27 32 41
c21 28 32 34 44 23c13 -12 13 -13 -38 -145c-58 -149 -98 -294 -114 -415c-6 -43 -8 -109 -3 -109c14 0 60 55 89 105c33 59 169 352 197 424c36 94 64 147 80 152c5 2 12 0 18 -4c11 -7 12 -20 2 -48c-60 -168 -71 -202 -83 -245c-5 -18 -14 -49 -19 -68
c-24 -81 -46 -196 -62 -318c-7 -58 -5 -77 9 -84c7 -3 11 -8 11 -15c3 -18 -23 -31 -42 -20v0zM351 709c-41 23 -70 47 -71 58c-3 28 21 35 52 14c24 -16 66 -59 66 -66c0 -11 -7 -22 -14 -21c-4 0 -18 7 -33 15v0z" />
    <glyph glyph-name="Uhungarumlaut" unicode="&#x170;" horiz-adv-x="405" 
d="M310 -144c-30 17 -41 98 -28 207c6 48 7 53 23 132c11 49 11 61 1 36c-23 -57 -80 -172 -102 -206c-36 -54 -77 -91 -102 -91c-11 0 -31 16 -38 31c-3 5 -8 26 -11 47c-12 95 26 270 97 448c19 46 20 50 14 56c-4 3 -7 8 -7 10c0 7 19 39 32 56c7 9 21 27 32 41
c21 28 32 34 44 23c13 -12 13 -13 -38 -145c-58 -149 -98 -294 -114 -415c-6 -43 -8 -109 -3 -109c14 0 60 55 89 105c33 59 169 352 197 424c36 94 64 147 80 152c5 2 12 0 18 -4c11 -7 12 -20 2 -48c-60 -168 -71 -202 -83 -245c-5 -18 -14 -49 -19 -68
c-24 -81 -46 -196 -62 -318c-7 -58 -5 -77 9 -84c7 -3 11 -8 11 -15c3 -18 -23 -31 -42 -20v0zM317 697c-7 8 -5 14 16 50c23 41 45 64 59 64c11 0 24 -12 24 -22c0 -15 -56 -80 -79 -92c-11 -6 -14 -6 -20 0v0zM397 697c-7 8 -5 14 16 50c23 41 45 64 59 64
c11 0 24 -12 24 -22c0 -15 -56 -80 -79 -92c-11 -6 -14 -6 -20 0v0z" />
    <glyph glyph-name="Uogonek" unicode="&#x172;" horiz-adv-x="405" 
d="M270 -193c8 15 23 24 39 25c7 0 13 0 13 1c0 0 -4 10 -10 22c-1 1 -2 1 -2 1c-30 17 -41 98 -28 207c6 48 7 53 23 132c11 49 11 61 1 36c-23 -57 -80 -172 -102 -206c-36 -54 -77 -91 -102 -91c-11 0 -31 16 -38 31c-3 5 -8 26 -11 47c-12 95 26 270 97 448
c19 46 20 50 14 56c-4 3 -7 8 -7 10c0 7 19 39 32 56l32 41c21 28 32 34 44 23c13 -12 13 -13 -38 -145c-58 -149 -98 -294 -114 -415c-6 -43 -8 -109 -3 -109c14 0 60 55 89 105c33 59 169 352 197 424c36 94 64 147 80 152c5 2 12 0 18 -4c11 -7 12 -20 2 -48
c-60 -168 -71 -202 -83 -245l-19 -68c-24 -81 -46 -196 -62 -318c-7 -58 -5 -77 9 -84c7 -3 11 -8 11 -15c0 -3 0 -7 -2 -10c3 -5 6 -10 9 -17c18 -40 11 -51 -28 -47c-25 2 -30 -1 -26 -16c5 -23 45 -38 69 -25c8 4 10 4 15 0c14 -11 -2 -32 -29 -38
c-52 -13 -111 42 -90 84z" />
    <glyph glyph-name="Uring" unicode="&#x16e;" horiz-adv-x="405" 
d="M310 -144v0c19 -11 45 2 42 20c0 7 -4 12 -11 15c-14 7 -16 26 -9 84c16 122 38 237 62 318c5 19 14 50 19 68c12 43 23 77 83 245c10 28 9 41 -2 48c-6 4 -13 6 -18 4c-16 -5 -44 -58 -80 -152c-28 -72 -164 -365 -197 -424c-29 -50 -75 -105 -89 -105c-5 0 -3 66 3 109
c16 121 56 266 114 415c51 132 51 133 38 145c-12 11 -23 5 -44 -23c-11 -14 -25 -32 -32 -41c-13 -17 -32 -49 -32 -56c0 -2 3 -7 7 -10c6 -6 5 -10 -14 -56c-71 -178 -109 -353 -97 -448c3 -21 8 -42 11 -47c7 -15 27 -31 38 -31c25 0 66 37 102 91c22 34 79 149 102 206
c10 25 10 13 -1 -36c-16 -79 -17 -84 -23 -132c-13 -109 -2 -190 28 -207zM367 825c14 0 45 -20 55 -35c17 -29 3 -78 -28 -93c-20 -9 -45 -8 -61 3c-22 15 -29 27 -28 54c0 20 2 27 10 40c12 17 35 31 52 31zM383 785v0c-1 1 -3 0 -4 0c-14 -3 -30 -21 -33 -35
c-4 -21 18 -35 37 -24c10 5 19 23 19 35c0 13 -9 24 -19 24z" />
    <glyph glyph-name="Utilde" unicode="&#x168;" horiz-adv-x="405" 
d="M310 -144c-30 17 -41 98 -28 207c6 48 7 53 23 132c11 49 11 61 1 36c-23 -57 -80 -172 -102 -206c-36 -54 -77 -91 -102 -91c-11 0 -31 16 -38 31c-3 5 -8 26 -11 47c-12 95 26 270 97 448c19 46 20 50 14 56c-4 3 -7 8 -7 10c0 7 19 39 32 56c7 9 21 27 32 41
c21 28 32 34 44 23c13 -12 13 -13 -38 -145c-58 -149 -98 -294 -114 -415c-6 -43 -8 -109 -3 -109c14 0 60 55 89 105c33 59 169 352 197 424c36 94 64 147 80 152c5 2 12 0 18 -4c11 -7 12 -20 2 -48c-60 -168 -71 -202 -83 -245c-5 -18 -14 -49 -19 -68
c-24 -81 -46 -196 -62 -318c-7 -58 -5 -77 9 -84c7 -3 11 -8 11 -15c3 -18 -23 -31 -42 -20v0zM386 699c-6 6 -15 18 -20 27c-5 10 -10 17 -11 17c-5 0 -16 -13 -16 -20c0 -10 -15 -18 -23 -14c-16 8 -5 40 20 59c27 20 53 10 68 -27c12 -26 22 -21 38 15c7 15 10 18 17 17
c8 -1 9 -3 8 -21c-1 -49 -49 -80 -81 -53z" />
    <glyph glyph-name="Wacute" unicode="&#x1e82;" horiz-adv-x="580" 
d="M281 -146c-16 10 -34 39 -41 67c-12 46 -6 123 20 274c4 22 7 41 7 41c-1 1 -4 -5 -9 -13c-89 -166 -116 -211 -145 -242c-14 -14 -18 -16 -32 -16c-22 0 -37 17 -43 52c-8 45 7 151 35 246c12 41 57 166 67 186c5 10 5 12 0 17c-3 3 -6 9 -6 12c0 13 26 57 55 96
c35 46 42 50 56 36c5 -5 8 -12 8 -17c0 -4 -10 -32 -21 -60c-41 -100 -88 -228 -107 -296c-22 -75 -47 -221 -39 -229c3 -3 9 4 40 49c26 37 49 77 110 188c56 103 65 121 79 161c26 72 45 99 65 88c13 -6 15 -20 9 -43c-50 -180 -72 -283 -94 -435c-9 -59 -7 -103 6 -123
c5 -8 8 -9 18 -7c39 9 84 65 140 175c48 96 78 180 113 316c28 113 34 147 34 203v44l-10 2c-23 2 -11 34 13 34c20 0 29 -30 29 -93c-1 -61 -23 -163 -68 -313c-43 -141 -126 -306 -184 -365c-42 -41 -77 -53 -105 -35v0zM399 699c-7 8 -5 14 16 50c23 41 45 64 59 64
c11 0 24 -12 24 -22c0 -15 -56 -80 -79 -92c-11 -6 -14 -6 -20 0v0z" />
    <glyph glyph-name="Wcircumflex" unicode="&#x174;" horiz-adv-x="580" 
d="M281 -146c-16 10 -34 39 -41 67c-12 46 -6 123 20 274c4 22 7 41 7 41c-1 1 -4 -5 -9 -13c-89 -166 -116 -211 -145 -242c-14 -14 -18 -16 -32 -16c-22 0 -37 17 -43 52c-8 45 7 151 35 246c12 41 57 166 67 186c5 10 5 12 0 17c-3 3 -6 9 -6 12c0 13 26 57 55 96
c35 46 42 50 56 36c5 -5 8 -12 8 -17c0 -4 -10 -32 -21 -60c-41 -100 -88 -228 -107 -296c-22 -75 -47 -221 -39 -229c3 -3 9 4 40 49c26 37 49 77 110 188c56 103 65 121 79 161c26 72 45 99 65 88c13 -6 15 -20 9 -43c-50 -180 -72 -283 -94 -435c-9 -59 -7 -103 6 -123
c5 -8 8 -9 18 -7c39 9 84 65 140 175c48 96 78 180 113 316c28 113 34 147 34 203v44l-10 2c-23 2 -11 34 13 34c20 0 29 -30 29 -93c-1 -61 -23 -163 -68 -313c-43 -141 -126 -306 -184 -365c-42 -41 -77 -53 -105 -35v0zM348 675c-9 9 15 57 47 94c14 15 18 18 30 18
s17 -3 32 -18c23 -25 40 -58 37 -74c-2 -7 -5 -15 -7 -18c-6 -7 -26 -7 -26 0c0 3 -3 8 -6 11c-4 2 -13 16 -22 31c-8 14 -17 25 -18 24c-2 -1 -14 -17 -26 -36c-16 -26 -24 -35 -30 -35c-5 0 -10 1 -11 3v0z" />
    <glyph glyph-name="Wdieresis" unicode="&#x1e84;" horiz-adv-x="580" 
d="M281 -146v0c28 -18 63 -6 105 35c58 59 141 224 184 365c45 150 67 252 68 313c0 63 -9 93 -29 93c-24 0 -36 -32 -13 -34l10 -2v-44c0 -56 -6 -90 -34 -203c-35 -136 -65 -220 -113 -316c-56 -110 -101 -166 -140 -175c-10 -2 -13 -1 -18 7c-13 20 -15 64 -6 123
c22 152 44 255 94 435c6 23 4 37 -9 43c-20 11 -39 -16 -65 -88c-14 -40 -23 -58 -79 -161c-61 -111 -84 -151 -110 -188c-31 -45 -37 -52 -40 -49c-8 8 17 154 39 229c19 68 66 196 107 296c11 28 21 56 21 60c0 5 -3 12 -8 17c-14 14 -21 10 -56 -36
c-29 -39 -55 -83 -55 -96c0 -3 3 -9 6 -12c5 -5 5 -7 0 -17c-10 -20 -55 -145 -67 -186c-28 -95 -43 -201 -35 -246c6 -35 21 -52 43 -52c14 0 18 2 32 16c29 31 56 76 145 242c5 8 8 14 9 13c0 0 -3 -19 -7 -41c-26 -151 -32 -228 -20 -274c7 -28 25 -57 41 -67zM383 728
c11 0 24 -12 29 -26c2 -6 0 -11 -9 -20c-14 -13 -28 -15 -39 -4c-16 16 -3 50 19 50zM479 722c15 -7 20 -19 13 -33c-9 -18 -33 -25 -45 -12v0c-7 7 -8 28 -1 36c9 13 21 16 33 9z" />
    <glyph glyph-name="Wgrave" unicode="&#x1e80;" horiz-adv-x="580" 
d="M281 -146c-16 10 -34 39 -41 67c-12 46 -6 123 20 274c4 22 7 41 7 41c-1 1 -4 -5 -9 -13c-89 -166 -116 -211 -145 -242c-14 -14 -18 -16 -32 -16c-22 0 -37 17 -43 52c-8 45 7 151 35 246c12 41 57 166 67 186c5 10 5 12 0 17c-3 3 -6 9 -6 12c0 13 26 57 55 96
c35 46 42 50 56 36c5 -5 8 -12 8 -17c0 -4 -10 -32 -21 -60c-41 -100 -88 -228 -107 -296c-22 -75 -47 -221 -39 -229c3 -3 9 4 40 49c26 37 49 77 110 188c56 103 65 121 79 161c26 72 45 99 65 88c13 -6 15 -20 9 -43c-50 -180 -72 -283 -94 -435c-9 -59 -7 -103 6 -123
c5 -8 8 -9 18 -7c39 9 84 65 140 175c48 96 78 180 113 316c28 113 34 147 34 203v44l-10 2c-23 2 -11 34 13 34c20 0 29 -30 29 -93c-1 -61 -23 -163 -68 -313c-43 -141 -126 -306 -184 -365c-42 -41 -77 -53 -105 -35v0zM404 689c-41 23 -70 47 -71 58c-3 28 21 35 52 14
c24 -16 66 -59 66 -66c0 -11 -7 -22 -14 -21c-4 0 -18 7 -33 15v0z" />
    <glyph glyph-name="Yacute" unicode="&#xdd;" horiz-adv-x="409" 
d="M82 -149c-18 6 -28 16 -41 37c-11 17 -12 22 -9 29c8 14 22 10 35 -9c14 -20 24 -24 44 -18c15 5 53 32 79 56c49 46 101 159 151 332c6 18 18 59 28 92c21 71 28 98 27 98c0 1 -26 -43 -58 -97c-104 -176 -136 -219 -179 -233c-13 -4 -26 -6 -31 -5c-15 4 -32 23 -39 44
c-20 58 8 193 69 334c1 2 -2 5 -6 6c-15 4 -7 37 16 72c14 20 53 70 58 74c7 5 25 3 31 -3c12 -13 6 -39 -36 -154c-56 -151 -85 -255 -85 -310c0 -29 12 -28 47 5c32 30 68 83 172 258c54 89 73 125 83 150c14 35 19 41 34 41c19 0 25 -9 25 -37c0 -34 -20 -137 -41 -207
c-9 -34 -22 -78 -28 -99c-64 -225 -135 -362 -216 -415c-53 -35 -101 -50 -130 -41v0zM352 722c-7 8 -5 14 16 50c23 41 45 64 59 64c11 0 24 -12 24 -22c0 -15 -56 -80 -79 -92c-11 -6 -14 -6 -20 0v0z" />
    <glyph glyph-name="Ycircumflex" unicode="&#x176;" horiz-adv-x="409" 
d="M82 -149c-18 6 -28 16 -41 37c-11 17 -12 22 -9 29c8 14 22 10 35 -9c14 -20 24 -24 44 -18c15 5 53 32 79 56c49 46 101 159 151 332c6 18 18 59 28 92c21 71 28 98 27 98c0 1 -26 -43 -58 -97c-104 -176 -136 -219 -179 -233c-13 -4 -26 -6 -31 -5c-15 4 -32 23 -39 44
c-20 58 8 193 69 334c1 2 -2 5 -6 6c-15 4 -7 37 16 72c14 20 53 70 58 74c7 5 25 3 31 -3c12 -13 6 -39 -36 -154c-56 -151 -85 -255 -85 -310c0 -29 12 -28 47 5c32 30 68 83 172 258c54 89 73 125 83 150c14 35 19 41 34 41c19 0 25 -9 25 -37c0 -34 -20 -137 -41 -207
c-9 -34 -22 -78 -28 -99c-64 -225 -135 -362 -216 -415c-53 -35 -101 -50 -130 -41v0zM301 698c-9 9 15 57 47 94c14 15 18 18 30 18s17 -3 32 -18c23 -25 40 -58 37 -74c-2 -7 -5 -15 -7 -18c-6 -7 -26 -7 -26 0c0 3 -3 8 -6 11c-4 2 -13 16 -22 31c-8 14 -17 25 -18 24
c-2 -1 -14 -17 -26 -36c-16 -26 -24 -35 -30 -35c-5 0 -10 1 -11 3v0z" />
    <glyph glyph-name="Ydieresis" unicode="&#x178;" horiz-adv-x="409" 
d="M82 -149v0c29 -9 77 6 130 41c81 53 152 190 216 415c6 21 19 65 28 99c21 70 41 173 41 207c0 28 -6 37 -25 37c-15 0 -20 -6 -34 -41c-10 -25 -29 -61 -83 -150c-104 -175 -140 -228 -172 -258c-35 -33 -47 -34 -47 -5c0 55 29 159 85 310c42 115 48 141 36 154
c-6 6 -24 8 -31 3c-5 -4 -44 -54 -58 -74c-23 -35 -31 -68 -16 -72c4 -1 7 -4 6 -6c-61 -141 -89 -276 -69 -334c7 -21 24 -40 39 -44c5 -1 18 1 31 5c43 14 75 57 179 233c32 54 58 98 58 97c1 0 -6 -27 -27 -98c-10 -33 -22 -74 -28 -92c-50 -173 -102 -286 -151 -332
c-26 -24 -64 -51 -79 -56c-20 -6 -30 -2 -44 18c-13 19 -27 23 -35 9c-3 -7 -2 -12 9 -29c13 -21 23 -31 41 -37zM336 751c11 0 24 -12 29 -26c2 -6 0 -11 -9 -20c-14 -13 -28 -15 -39 -4c-16 16 -3 50 19 50zM432 745c15 -7 20 -19 13 -33c-9 -18 -33 -25 -45 -12v0
c-7 7 -8 28 -1 36c9 13 21 16 33 9z" />
    <glyph glyph-name="Ygrave" unicode="&#x1ef2;" horiz-adv-x="409" 
d="M82 -149c-18 6 -28 16 -41 37c-11 17 -12 22 -9 29c8 14 22 10 35 -9c14 -20 24 -24 44 -18c15 5 53 32 79 56c49 46 101 159 151 332c6 18 18 59 28 92c21 71 28 98 27 98c0 1 -26 -43 -58 -97c-104 -176 -136 -219 -179 -233c-13 -4 -26 -6 -31 -5c-15 4 -32 23 -39 44
c-20 58 8 193 69 334c1 2 -2 5 -6 6c-15 4 -7 37 16 72c14 20 53 70 58 74c7 5 25 3 31 -3c12 -13 6 -39 -36 -154c-56 -151 -85 -255 -85 -310c0 -29 12 -28 47 5c32 30 68 83 172 258c54 89 73 125 83 150c14 35 19 41 34 41c19 0 25 -9 25 -37c0 -34 -20 -137 -41 -207
c-9 -34 -22 -78 -28 -99c-64 -225 -135 -362 -216 -415c-53 -35 -101 -50 -130 -41v0zM357 712c-41 23 -70 47 -71 58c-3 28 21 35 52 14c24 -16 66 -59 66 -66c0 -11 -7 -22 -14 -21c-4 0 -18 7 -33 15v0z" />
    <glyph glyph-name="Zacute" unicode="&#x179;" 
d="M302 -66c-31 2 -66 9 -138 26l-71 18l-20 -12c-40 -25 -74 -29 -87 -11c-7 10 -8 31 -2 42c6 12 33 22 58 22h21l33 34c32 33 154 174 156 181c1 3 -10 4 -26 4c-30 0 -42 6 -35 20c4 6 9 7 46 7h41l38 45c21 25 55 66 76 91c48 59 74 88 129 147c24 27 43 49 42 49
c-1 1 -25 -4 -53 -11c-58 -15 -134 -30 -186 -37c-61 -8 -118 4 -138 27c-13 16 -21 52 -13 65c3 6 9 10 14 11c14 2 22 -9 24 -31c2 -23 7 -27 38 -36c16 -5 29 -6 59 -4c100 7 269 47 327 78c10 5 20 8 25 6c11 -3 20 -18 17 -29c-1 -6 -21 -29 -43 -53
c-52 -55 -132 -146 -176 -201c-19 -23 -49 -59 -66 -79l-32 -36l18 -4c19 -4 27 -12 23 -22c-2 -5 -8 -6 -34 -4l-32 1l-19 -23c-30 -38 -135 -157 -164 -187l-27 -27l11 -3c6 -2 30 -8 53 -14c85 -22 134 -26 200 -18c46 5 74 17 85 34c12 18 26 19 27 2
c3 -34 -41 -57 -127 -67c-19 -2 -39 -4 -45 -3c-5 0 -17 1 -27 2v0zM403 703c-7 8 -5 14 16 50c23 41 45 64 59 64c11 0 24 -12 24 -22c0 -15 -56 -80 -79 -92c-11 -6 -14 -6 -20 0v0z" />
    <glyph glyph-name="Zcaron" unicode="&#x17d;" 
d="M302 -66c-31 2 -66 9 -138 26l-71 18l-20 -12c-40 -25 -74 -29 -87 -11c-7 10 -8 31 -2 42c6 12 33 22 58 22h21l33 34c32 33 154 174 156 181c1 3 -10 4 -26 4c-30 0 -42 6 -35 20c4 6 9 7 46 7h41l38 45c21 25 55 66 76 91c48 59 74 88 129 147c24 27 43 49 42 49
c-1 1 -25 -4 -53 -11c-58 -15 -134 -30 -186 -37c-61 -8 -118 4 -138 27c-13 16 -21 52 -13 65c3 6 9 10 14 11c14 2 22 -9 24 -31c2 -23 7 -27 38 -36c16 -5 29 -6 59 -4c100 7 269 47 327 78c10 5 20 8 25 6c11 -3 20 -18 17 -29c-1 -6 -21 -29 -43 -53
c-52 -55 -132 -146 -176 -201c-19 -23 -49 -59 -66 -79l-32 -36l18 -4c19 -4 27 -12 23 -22c-2 -5 -8 -6 -34 -4l-32 1l-19 -23c-30 -38 -135 -157 -164 -187l-27 -27l11 -3c6 -2 30 -8 53 -14c85 -22 134 -26 200 -18c46 5 74 17 85 34c12 18 26 19 27 2
c3 -34 -41 -57 -127 -67c-19 -2 -39 -4 -45 -3c-5 0 -17 1 -27 2v0zM394 701c-22 15 -37 31 -48 53c-9 18 -9 24 -1 32c14 14 38 1 63 -36c7 -11 14 -19 15 -19c2 0 12 13 24 29c12 17 25 33 29 37c10 9 21 7 23 -3c1 -8 -52 -92 -64 -101c-10 -8 -21 -6 -41 8v0z" />
    <glyph glyph-name="Zdotaccent" unicode="&#x17b;" 
d="M302 -66v0c10 -1 22 -2 27 -2c6 -1 26 1 45 3c86 10 130 33 127 67c-1 17 -15 16 -27 -2c-11 -17 -39 -29 -85 -34c-66 -8 -115 -4 -200 18c-23 6 -47 12 -53 14l-11 3l27 27c29 30 134 149 164 187l19 23l32 -1c26 -2 32 -1 34 4c4 10 -4 18 -23 22l-18 4l32 36
c17 20 47 56 66 79c44 55 124 146 176 201c22 24 42 47 43 53c3 11 -6 26 -17 29c-5 2 -15 -1 -25 -6c-58 -31 -227 -71 -327 -78c-30 -2 -43 -1 -59 4c-31 9 -36 13 -38 36c-2 22 -10 33 -24 31c-5 -1 -11 -5 -14 -11c-8 -13 0 -49 13 -65c20 -23 77 -35 138 -27
c52 7 128 22 186 37c28 7 52 12 53 11c1 0 -18 -22 -42 -49c-55 -59 -81 -88 -129 -147c-21 -25 -55 -66 -76 -91l-38 -45h-41c-37 0 -42 -1 -46 -7c-7 -14 5 -20 35 -20c16 0 27 -1 26 -4c-2 -7 -124 -148 -156 -181l-33 -34h-21c-25 0 -52 -10 -58 -22
c-6 -11 -5 -32 2 -42c13 -18 47 -14 87 11l20 12l71 -18c72 -17 107 -24 138 -26zM423 731c11 0 24 -12 29 -26c2 -6 0 -11 -9 -20c-14 -13 -28 -15 -39 -4c-16 16 -3 50 19 50z" />
    <glyph glyph-name="scommaaccent.001" unicode="&#xe006;" horiz-adv-x="189" 
d="M-14 -268c8 -8 17 -5 33 13c28 31 35 72 18 93c-12 14 -24 15 -38 5c-17 -14 -16 -36 3 -51l8 -6l-15 -22c-15 -23 -16 -25 -9 -32zM90 253v0c7 0 14 -2 18 -5c8 -7 5 -43 -6 -67l-9 -18l8 -20c5 -11 11 -26 13 -33s4 -14 5 -14c0 -1 25 14 54 32c87 56 88 56 95 49
c4 -4 6 -8 6 -11c-1 -2 -35 -26 -75 -53l-73 -49l3 -24c7 -50 -5 -101 -32 -131c-30 -35 -88 -53 -121 -37c-9 4 -20 13 -24 20c-21 34 -1 69 71 126l40 32l-2 17c-1 10 -6 31 -11 48c-13 42 -13 78 0 106c6 11 14 23 19 26c6 3 14 5 21 6zM66 14v0c-3 0 -9 -3 -17 -10
c-28 -22 -62 -56 -68 -68c-16 -30 8 -43 44 -25c27 14 38 32 43 66c4 26 4 37 -2 37z" />
    <glyph glyph-name="aacute" unicode="&#xe1;" horiz-adv-x="268" 
d="M105 229v0c14 0 32 -17 38 -35l5 -16l21 24c23 27 37 31 48 14c6 -9 6 -11 -8 -43c-21 -51 -55 -157 -58 -178c-3 -23 2 -25 23 -9c18 14 45 45 87 101c80 106 78 103 87 96c3 -3 5 -7 5 -10c0 -6 -93 -132 -129 -175c-42 -50 -71 -64 -95 -45c-6 5 -13 14 -16 21
c-8 19 -6 64 4 102l8 33l-28 -26c-34 -33 -49 -42 -65 -42s-27 10 -30 29c-4 22 0 43 17 76c25 51 59 83 86 83zM107 184l-10 -9c-12 -12 -32 -43 -43 -67c-15 -34 -11 -33 34 8c19 18 35 35 35 38c0 2 -3 10 -8 17zM136 273c-7 8 -5 14 16 50c23 41 45 64 59 64
c11 0 24 -12 24 -22c0 -15 -56 -80 -79 -92c-11 -6 -14 -6 -20 0v0z" />
    <glyph glyph-name="abreve" unicode="&#x103;" horiz-adv-x="268" 
d="M105 229v0c14 0 32 -17 38 -35l5 -16l21 24c23 27 37 31 48 14c6 -9 6 -11 -8 -43c-21 -51 -55 -157 -58 -178c-3 -23 2 -25 23 -9c18 14 45 45 87 101c80 106 78 103 87 96c3 -3 5 -7 5 -10c0 -6 -93 -132 -129 -175c-42 -50 -71 -64 -95 -45c-6 5 -13 14 -16 21
c-8 19 -6 64 4 102l8 33l-28 -26c-34 -33 -49 -42 -65 -42s-27 10 -30 29c-4 22 0 43 17 76c25 51 59 83 86 83zM107 184l-10 -9c-12 -12 -32 -43 -43 -67c-15 -34 -11 -33 34 8c19 18 35 35 35 38c0 2 -3 10 -8 17zM103 280c-8 9 -13 16 -23 33c-9 18 11 27 18 19
c7 -10 11 -14 28 -35c25 -33 30 -17 54 8c14 16 28 31 33 34c10 8 26 -4 20 -13c-16 -21 -21 -32 -32 -42c-53 -58 -77 -26 -98 -4z" />
    <glyph glyph-name="acircumflex" unicode="&#xe2;" horiz-adv-x="268" 
d="M105 229v0c14 0 32 -17 38 -35l5 -16l21 24c23 27 37 31 48 14c6 -9 6 -11 -8 -43c-21 -51 -55 -157 -58 -178c-3 -23 2 -25 23 -9c18 14 45 45 87 101c80 106 78 103 87 96c3 -3 5 -7 5 -10c0 -6 -93 -132 -129 -175c-42 -50 -71 -64 -95 -45c-6 5 -13 14 -16 21
c-8 19 -6 64 4 102l8 33l-28 -26c-34 -33 -49 -42 -65 -42s-27 10 -30 29c-4 22 0 43 17 76c25 51 59 83 86 83zM107 184l-10 -9c-12 -12 -32 -43 -43 -67c-15 -34 -11 -33 34 8c19 18 35 35 35 38c0 2 -3 10 -8 17zM85 249c-9 9 15 57 47 94c14 15 18 18 30 18
s17 -3 32 -18c23 -25 40 -58 37 -74c-2 -7 -5 -15 -7 -18c-6 -7 -26 -7 -26 0c0 3 -3 8 -6 11c-4 2 -13 16 -22 31c-8 14 -17 25 -18 24c-2 -1 -14 -17 -26 -36c-16 -26 -24 -35 -30 -35c-5 0 -10 1 -11 3v0z" />
    <glyph glyph-name="adieresis" unicode="&#xe4;" horiz-adv-x="268" 
d="M105 229v0c14 0 32 -17 38 -35l5 -16l21 24c23 27 37 31 48 14c6 -9 6 -11 -8 -43c-21 -51 -55 -157 -58 -178c-3 -23 2 -25 23 -9c18 14 45 45 87 101c80 106 78 103 87 96c3 -3 5 -7 5 -10c0 -6 -93 -132 -129 -175c-42 -50 -71 -64 -95 -45c-6 5 -13 14 -16 21
c-8 19 -6 64 4 102l8 33l-28 -26c-34 -33 -49 -42 -65 -42s-27 10 -30 29c-4 22 0 43 17 76c25 51 59 83 86 83zM107 184l-10 -9c-12 -12 -32 -43 -43 -67c-15 -34 -11 -33 34 8c19 18 35 35 35 38c0 2 -3 10 -8 17zM120 302c11 0 24 -12 29 -26c2 -6 0 -11 -9 -20
c-14 -13 -28 -15 -39 -4c-16 16 -3 50 19 50zM216 296c15 -7 20 -19 13 -33c-9 -18 -33 -25 -45 -12v0c-7 7 -8 28 -1 36c9 13 21 16 33 9z" />
    <glyph glyph-name="agrave" unicode="&#xe0;" horiz-adv-x="268" 
d="M105 229v0c14 0 32 -17 38 -35l5 -16l21 24c23 27 37 31 48 14c6 -9 6 -11 -8 -43c-21 -51 -55 -157 -58 -178c-3 -23 2 -25 23 -9c18 14 45 45 87 101c80 106 78 103 87 96c3 -3 5 -7 5 -10c0 -6 -93 -132 -129 -175c-42 -50 -71 -64 -95 -45c-6 5 -13 14 -16 21
c-8 19 -6 64 4 102l8 33l-28 -26c-34 -33 -49 -42 -65 -42s-27 10 -30 29c-4 22 0 43 17 76c25 51 59 83 86 83zM107 184l-10 -9c-12 -12 -32 -43 -43 -67c-15 -34 -11 -33 34 8c19 18 35 35 35 38c0 2 -3 10 -8 17zM141 263c-41 23 -70 47 -71 58c-3 28 21 35 52 14
c24 -16 66 -59 66 -66c0 -11 -7 -22 -14 -21c-4 0 -18 7 -33 15v0z" />
    <glyph glyph-name="aogonek" unicode="&#x105;" horiz-adv-x="268" 
d="M218 -5c-19 -23 -35 -38 -50 -46c2 -4 4 -8 7 -13c18 -40 11 -51 -28 -47c-25 2 -30 -1 -26 -16c5 -23 45 -38 69 -25c8 4 10 4 15 0c14 -11 -2 -32 -29 -38c-52 -13 -111 42 -90 84c8 15 23 24 39 25c7 0 13 0 13 1c0 0 -4 10 -10 22l-3 6l-2 2c-6 5 -13 14 -16 21
c-8 19 -6 64 4 102l8 33l-28 -26c-34 -33 -49 -42 -65 -42s-27 10 -30 29c-4 22 0 43 17 76c25 51 59 83 86 83c14 0 32 -17 38 -35l5 -16l21 24c23 27 37 31 48 14c6 -9 6 -11 -8 -43c-21 -51 -55 -157 -58 -178c-1 -7 -1 -12 0 -15c2 -1 5 -2 7 -4c4 1 9 4 16 10
c18 14 45 45 87 101c80 106 78 103 87 96c3 -3 5 -7 5 -10c0 -6 -93 -132 -129 -175zM82 113c19 18 35 35 35 38c0 2 -3 10 -8 17l-8 13l-10 -9c-12 -12 -32 -43 -43 -67c-15 -34 -11 -33 34 8z" />
    <glyph glyph-name="aring" unicode="&#xe5;" horiz-adv-x="268" 
d="M105 229v0c14 0 32 -17 38 -35l5 -16l21 24c23 27 37 31 48 14c6 -9 6 -11 -8 -43c-21 -51 -55 -157 -58 -178c-3 -23 2 -25 23 -9c18 14 45 45 87 101c80 106 78 103 87 96c3 -3 5 -7 5 -10c0 -6 -93 -132 -129 -175c-42 -50 -71 -64 -95 -45c-6 5 -13 14 -16 21
c-8 19 -6 64 4 102l8 33l-28 -26c-34 -33 -49 -42 -65 -42s-27 10 -30 29c-4 22 0 43 17 76c25 51 59 83 86 83zM107 184l-10 -9c-12 -12 -32 -43 -43 -67c-15 -34 -11 -33 34 8c19 18 35 35 35 38c0 2 -3 10 -8 17zM157 379c14 0 45 -20 55 -35c17 -29 3 -78 -28 -93
c-20 -9 -45 -8 -61 3c-22 15 -29 27 -28 54c0 20 2 27 10 40c12 17 35 31 52 31zM173 339v0c-1 1 -3 0 -4 0c-14 -3 -30 -21 -33 -35c-4 -21 18 -35 37 -24c10 5 19 23 19 35c0 13 -9 24 -19 24z" />
    <glyph glyph-name="atilde" unicode="&#xe3;" horiz-adv-x="268" 
d="M105 229v0c14 0 32 -17 38 -35l5 -16l21 24c23 27 37 31 48 14c6 -9 6 -11 -8 -43c-21 -51 -55 -157 -58 -178c-3 -23 2 -25 23 -9c18 14 45 45 87 101c80 106 78 103 87 96c3 -3 5 -7 5 -10c0 -6 -93 -132 -129 -175c-42 -50 -71 -64 -95 -45c-6 5 -13 14 -16 21
c-8 19 -6 64 4 102l8 33l-28 -26c-34 -33 -49 -42 -65 -42s-27 10 -30 29c-4 22 0 43 17 76c25 51 59 83 86 83zM107 184l-10 -9c-12 -12 -32 -43 -43 -67c-15 -34 -11 -33 34 8c19 18 35 35 35 38c0 2 -3 10 -8 17zM176 253c-6 6 -15 18 -20 27c-5 10 -10 17 -11 17
c-5 0 -16 -13 -16 -20c0 -10 -15 -18 -23 -14c-16 8 -5 40 20 59c27 20 53 10 68 -27c12 -26 22 -21 38 15c7 15 10 18 17 17c8 -1 9 -3 8 -21c-1 -49 -49 -80 -81 -53z" />
    <glyph glyph-name="aeacute" unicode="&#x1fd;" horiz-adv-x="366" 
d="M450 173c1 -4 -10 -18 -47 -53c-85 -83 -155 -128 -194 -128c-19 0 -22 1 -35 15c-5 6 -10 12 -13 19c-6 -18 -9 -32 -10 -38c-2 -16 -8 -36 -22 -42c-7 -2 -13 14 -16 21c-8 19 -6 64 3 102l9 34l-28 -27c-34 -32 -49 -42 -65 -42s-27 11 -30 29c-5 22 0 43 17 76
c25 51 58 83 86 83v0c14 0 32 -17 38 -35l5 -16l20 24c23 26 37 30 48 16c11 7 24 11 36 11c16 0 21 -2 31 -12c11 -11 11 -12 9 -43c-2 -35 -8 -50 -26 -65c-13 -11 -29 -13 -49 -6c-16 6 -20 1 -20 -28c0 -31 5 -42 18 -42c20 0 67 27 114 63c23 18 84 73 94 84
c8 9 23 9 27 0zM248 182c-13 -6 -35 -38 -35 -49c0 -6 11 -12 27 -14c1 0 6 4 10 9c9 9 16 42 11 54c-1 3 -2 4 -4 4v0c-1 0 -4 -1 -9 -4zM87 109c20 18 36 35 36 38c0 2 -4 10 -8 17l-8 13l-10 -9c-12 -11 -32 -43 -43 -67c-15 -34 -11 -33 33 8zM137 237c-7 8 -5 14 16 50
c23 41 45 64 59 64c11 0 24 -12 24 -22c0 -15 -56 -80 -79 -92c-11 -6 -14 -6 -20 0v0z" />
    <glyph glyph-name="cacute" unicode="&#x107;" horiz-adv-x="223" 
d="M45 14c-23 10 -36 34 -34 75c1 22 4 37 17 65c19 40 46 68 69 75c33 10 49 -5 49 -49c0 -23 -2 -29 -9 -36s-9 -8 -14 -3c-5 3 -6 9 -4 21c3 17 0 32 -6 32c-7 0 -31 -37 -42 -66c-12 -29 -16 -65 -10 -81c4 -10 35 -8 58 3s101 68 141 103c30 26 42 31 47 19
c3 -9 -41 -51 -109 -102c-54 -40 -77 -53 -105 -60c-23 -5 -30 -5 -48 4v0zM98 275c-7 8 -5 14 16 50c23 41 45 64 59 64c11 0 24 -12 24 -22c0 -15 -56 -80 -79 -92c-11 -6 -14 -6 -20 0v0z" />
    <glyph glyph-name="ccaron" unicode="&#x10d;" horiz-adv-x="223" 
d="M45 14c-23 10 -36 34 -34 75c1 22 4 37 17 65c19 40 46 68 69 75c33 10 49 -5 49 -49c0 -23 -2 -29 -9 -36s-9 -8 -14 -3c-5 3 -6 9 -4 21c3 17 0 32 -6 32c-7 0 -31 -37 -42 -66c-12 -29 -16 -65 -10 -81c4 -10 35 -8 58 3s101 68 141 103c30 26 42 31 47 19
c3 -9 -41 -51 -109 -102c-54 -40 -77 -53 -105 -60c-23 -5 -30 -5 -48 4v0zM89 273c-22 15 -37 31 -48 53c-9 18 -9 24 -1 32c14 14 38 1 63 -36c7 -11 14 -19 15 -19c2 0 12 13 24 29c12 17 25 33 29 37c10 9 21 7 23 -3c1 -8 -52 -92 -64 -101c-10 -8 -21 -6 -41 8v0z" />
    <glyph glyph-name="ccedilla" unicode="&#xe7;" horiz-adv-x="223" 
d="M23 -133c-27 6 -43 27 -29 38c5 4 7 4 15 0c24 -13 64 2 69 25c4 15 -1 18 -26 16c-39 -4 -46 7 -28 47c5 11 9 19 13 25c-18 12 -28 35 -26 71c1 22 4 37 17 65c19 40 46 68 69 75c33 10 49 -5 49 -49c0 -23 -2 -29 -9 -36s-9 -8 -14 -3c-5 3 -6 9 -4 21
c3 17 0 32 -6 32c-7 0 -31 -37 -42 -66c-12 -29 -16 -65 -10 -81c4 -10 35 -8 58 3s101 68 141 103c30 26 42 31 47 19c3 -9 -41 -51 -109 -102c-54 -40 -77 -53 -105 -60l-19 -4l-3 -7c-6 -12 -10 -22 -10 -22c0 -1 6 -1 13 -1c16 -1 31 -10 39 -25c21 -42 -38 -97 -90 -84
z" />
    <glyph glyph-name="ccircumflex" unicode="&#x109;" horiz-adv-x="223" 
d="M45 14c-23 10 -36 34 -34 75c1 22 4 37 17 65c19 40 46 68 69 75c33 10 49 -5 49 -49c0 -23 -2 -29 -9 -36s-9 -8 -14 -3c-5 3 -6 9 -4 21c3 17 0 32 -6 32c-7 0 -31 -37 -42 -66c-12 -29 -16 -65 -10 -81c4 -10 35 -8 58 3s101 68 141 103c30 26 42 31 47 19
c3 -9 -41 -51 -109 -102c-54 -40 -77 -53 -105 -60c-23 -5 -30 -5 -48 4v0zM47 251c-9 9 15 57 47 94c14 15 18 18 30 18s17 -3 32 -18c23 -25 40 -58 37 -74c-2 -7 -5 -15 -7 -18c-6 -7 -26 -7 -26 0c0 3 -3 8 -6 11c-4 2 -13 16 -22 31c-8 14 -17 25 -18 24
c-2 -1 -14 -17 -26 -36c-16 -26 -24 -35 -30 -35c-5 0 -10 1 -11 3v0z" />
    <glyph glyph-name="cdotaccent" unicode="&#x10b;" horiz-adv-x="223" 
d="M45 14v0c18 -9 25 -9 48 -4c28 7 51 20 105 60c68 51 112 93 109 102c-5 12 -17 7 -47 -19c-40 -35 -118 -92 -141 -103s-54 -13 -58 -3c-6 16 -2 52 10 81c11 29 35 66 42 66c6 0 9 -15 6 -32c-2 -12 -1 -18 4 -21c5 -5 7 -4 14 3s9 13 9 36c0 44 -16 59 -49 49
c-23 -7 -50 -35 -69 -75c-13 -28 -16 -43 -17 -65c-2 -41 11 -65 34 -75zM118 303c11 0 24 -12 29 -26c2 -6 0 -11 -9 -20c-14 -13 -28 -15 -39 -4c-16 16 -3 50 19 50z" />
    <glyph glyph-name="dcaron" unicode="&#x10f;" horiz-adv-x="393" 
d="M353 581v0c3 0 5 -1 10 -4c13 -9 12 -19 -8 -62c-9 -20 -33 -84 -52 -141c-19 -58 -40 -118 -46 -135c-28 -81 -96 -338 -96 -366c0 -4 4 -9 9 -11c14 -6 13 -19 -4 -36s-28 -19 -39 -7c-4 4 -9 14 -10 23c-4 26 10 113 34 211c14 53 23 94 22 93c-2 -2 -18 -26 -37 -53
c-41 -61 -80 -102 -95 -102c-6 0 -14 2 -19 4c-10 6 -22 33 -22 50c0 39 24 114 49 149c23 33 60 48 81 33c9 -7 24 -32 24 -42c0 -12 7 -5 24 24c29 51 36 67 64 148c49 143 77 204 102 220c4 3 7 4 9 4zM111 188v0c-6 -1 -12 -9 -22 -25c-12 -21 -36 -89 -41 -116l-3 -16
l18 17c10 10 32 37 49 61c26 37 30 44 25 48c-3 3 -9 11 -14 19c-4 8 -8 12 -12 12zM298 213v0c8 -9 17 -5 33 13c28 31 35 72 18 93c-12 14 -24 15 -38 4c-17 -14 -16 -35 3 -50l8 -7l-15 -21c-15 -24 -16 -26 -9 -32z" />
    <glyph glyph-name="eacute" unicode="&#xe9;" horiz-adv-x="225" 
d="M111 229v0c16 0 21 -2 31 -12c11 -11 12 -12 10 -43c-3 -35 -9 -50 -26 -66c-14 -11 -30 -12 -50 -5c-16 5 -19 1 -19 -28c0 -31 4 -42 18 -42c19 0 67 26 113 62c23 18 85 73 95 85c7 9 23 9 26 0c2 -5 -10 -18 -47 -53c-85 -83 -154 -128 -194 -128c-19 0 -22 1 -34 14
c-19 20 -25 42 -23 81c5 72 51 135 100 135zM117 193v0c-2 0 -5 -1 -10 -4c-12 -6 -35 -38 -35 -49c0 -6 11 -12 27 -14c1 -1 6 3 11 8c9 10 15 43 10 55c-1 2 -1 4 -3 4zM96 273c-7 8 -5 14 16 50c23 41 45 64 59 64c11 0 24 -12 24 -22c0 -15 -56 -80 -79 -92
c-11 -6 -14 -6 -20 0v0z" />
    <glyph glyph-name="ebreve" unicode="&#x115;" horiz-adv-x="225" 
d="M111 229v0c16 0 21 -2 31 -12c11 -11 12 -12 10 -43c-3 -35 -9 -50 -26 -66c-14 -11 -30 -12 -50 -5c-16 5 -19 1 -19 -28c0 -31 4 -42 18 -42c19 0 67 26 113 62c23 18 85 73 95 85c7 9 23 9 26 0c2 -5 -10 -18 -47 -53c-85 -83 -154 -128 -194 -128c-19 0 -22 1 -34 14
c-19 20 -25 42 -23 81c5 72 51 135 100 135zM117 193v0c-2 0 -5 -1 -10 -4c-12 -6 -35 -38 -35 -49c0 -6 11 -12 27 -14c1 -1 6 3 11 8c9 10 15 43 10 55c-1 2 -1 4 -3 4zM63 280c-8 9 -13 16 -23 33c-9 18 11 27 18 19c7 -10 11 -14 28 -35c25 -33 30 -17 54 8
c14 16 28 31 33 34c10 8 26 -4 20 -13c-16 -21 -21 -32 -32 -42c-53 -58 -77 -26 -98 -4z" />
    <glyph glyph-name="ecaron" unicode="&#x11b;" horiz-adv-x="225" 
d="M111 229v0c16 0 21 -2 31 -12c11 -11 12 -12 10 -43c-3 -35 -9 -50 -26 -66c-14 -11 -30 -12 -50 -5c-16 5 -19 1 -19 -28c0 -31 4 -42 18 -42c19 0 67 26 113 62c23 18 85 73 95 85c7 9 23 9 26 0c2 -5 -10 -18 -47 -53c-85 -83 -154 -128 -194 -128c-19 0 -22 1 -34 14
c-19 20 -25 42 -23 81c5 72 51 135 100 135zM117 193v0c-2 0 -5 -1 -10 -4c-12 -6 -35 -38 -35 -49c0 -6 11 -12 27 -14c1 -1 6 3 11 8c9 10 15 43 10 55c-1 2 -1 4 -3 4zM87 271c-22 15 -37 31 -48 53c-9 18 -9 24 -1 32c14 14 38 1 63 -36c7 -11 14 -19 15 -19
c2 0 12 13 24 29c12 17 25 33 29 37c10 9 21 7 23 -3c1 -8 -52 -92 -64 -101c-10 -8 -21 -6 -41 8v0z" />
    <glyph glyph-name="ecircumflex" unicode="&#xea;" horiz-adv-x="225" 
d="M111 229v0c16 0 21 -2 31 -12c11 -11 12 -12 10 -43c-3 -35 -9 -50 -26 -66c-14 -11 -30 -12 -50 -5c-16 5 -19 1 -19 -28c0 -31 4 -42 18 -42c19 0 67 26 113 62c23 18 85 73 95 85c7 9 23 9 26 0c2 -5 -10 -18 -47 -53c-85 -83 -154 -128 -194 -128c-19 0 -22 1 -34 14
c-19 20 -25 42 -23 81c5 72 51 135 100 135zM117 193v0c-2 0 -5 -1 -10 -4c-12 -6 -35 -38 -35 -49c0 -6 11 -12 27 -14c1 -1 6 3 11 8c9 10 15 43 10 55c-1 2 -1 4 -3 4zM45 249c-9 9 15 57 47 94c14 15 18 18 30 18s17 -3 32 -18c23 -25 40 -58 37 -74
c-2 -7 -5 -15 -7 -18c-6 -7 -26 -7 -26 0c0 3 -3 8 -6 11c-4 2 -13 16 -22 31c-8 14 -17 25 -18 24c-2 -1 -14 -17 -26 -36c-16 -26 -24 -35 -30 -35c-5 0 -10 1 -11 3v0z" />
    <glyph glyph-name="edieresis" unicode="&#xeb;" horiz-adv-x="225" 
d="M111 229v0c16 0 21 -2 31 -12c11 -11 12 -12 10 -43c-3 -35 -9 -50 -26 -66c-14 -11 -30 -12 -50 -5c-16 5 -19 1 -19 -28c0 -31 4 -42 18 -42c19 0 67 26 113 62c23 18 85 73 95 85c7 9 23 9 26 0c2 -5 -10 -18 -47 -53c-85 -83 -154 -128 -194 -128c-19 0 -22 1 -34 14
c-19 20 -25 42 -23 81c5 72 51 135 100 135zM117 193v0c-2 0 -5 -1 -10 -4c-12 -6 -35 -38 -35 -49c0 -6 11 -12 27 -14c1 -1 6 3 11 8c9 10 15 43 10 55c-1 2 -1 4 -3 4zM80 302c11 0 24 -12 29 -26c2 -6 0 -11 -9 -20c-14 -13 -28 -15 -39 -4c-16 16 -3 50 19 50zM176 296
c15 -7 20 -19 13 -33c-9 -18 -33 -25 -45 -12v0c-7 7 -8 28 -1 36c9 13 21 16 33 9z" />
    <glyph glyph-name="edotaccent" unicode="&#x117;" horiz-adv-x="225" 
d="M111 229v0c16 0 21 -2 31 -12c11 -11 12 -12 10 -43c-3 -35 -9 -50 -26 -66c-14 -11 -30 -12 -50 -5c-16 5 -19 1 -19 -28c0 -31 4 -42 18 -42c19 0 67 26 113 62c23 18 85 73 95 85c7 9 23 9 26 0c2 -5 -10 -18 -47 -53c-85 -83 -154 -128 -194 -128c-19 0 -22 1 -34 14
c-19 20 -25 42 -23 81c5 72 51 135 100 135zM117 193v0c-2 0 -5 -1 -10 -4c-12 -6 -35 -38 -35 -49c0 -6 11 -12 27 -14c1 -1 6 3 11 8c9 10 15 43 10 55c-1 2 -1 4 -3 4zM116 301c11 0 24 -12 29 -26c2 -6 0 -11 -9 -20c-14 -13 -28 -15 -39 -4c-16 16 -3 50 19 50z" />
    <glyph glyph-name="egrave" unicode="&#xe8;" horiz-adv-x="225" 
d="M111 229v0c16 0 21 -2 31 -12c11 -11 12 -12 10 -43c-3 -35 -9 -50 -26 -66c-14 -11 -30 -12 -50 -5c-16 5 -19 1 -19 -28c0 -31 4 -42 18 -42c19 0 67 26 113 62c23 18 85 73 95 85c7 9 23 9 26 0c2 -5 -10 -18 -47 -53c-85 -83 -154 -128 -194 -128c-19 0 -22 1 -34 14
c-19 20 -25 42 -23 81c5 72 51 135 100 135zM117 193v0c-2 0 -5 -1 -10 -4c-12 -6 -35 -38 -35 -49c0 -6 11 -12 27 -14c1 -1 6 3 11 8c9 10 15 43 10 55c-1 2 -1 4 -3 4zM101 263c-41 23 -70 47 -71 58c-3 28 21 35 52 14c24 -16 66 -59 66 -66c0 -11 -7 -22 -14 -21
c-4 0 -18 7 -33 15v0z" />
    <glyph glyph-name="eogonek" unicode="&#x119;" horiz-adv-x="225" 
d="M307 182c2 -5 -10 -18 -47 -53c-73 -71 -133 -114 -175 -125c1 -1 2 -3 2 -4c18 -40 11 -51 -28 -47c-25 2 -30 -1 -26 -16c5 -23 45 -38 69 -25c8 4 10 4 15 0c14 -11 -2 -32 -29 -38c-52 -13 -111 42 -90 84c8 15 23 24 39 25c7 0 13 0 13 1c0 0 -4 10 -10 22v1
c-2 2 -5 4 -8 8c-19 20 -25 42 -23 81c5 72 51 135 100 135c16 0 21 -2 31 -12c11 -11 12 -12 10 -43c-3 -35 -9 -50 -26 -66c-14 -11 -30 -12 -50 -5c-16 5 -19 1 -19 -28c0 -20 1 -32 7 -38c1 -1 2 -1 3 -3c2 -1 5 -1 8 -1c19 0 67 26 113 62c23 18 85 73 95 85
c7 9 23 9 26 0zM105 191c-12 -6 -35 -38 -35 -49c0 -6 11 -12 27 -14c1 -1 6 3 11 8c9 10 15 43 10 55c-1 2 -1 4 -3 4s-5 -1 -10 -4z" />
    <glyph glyph-name="gbreve" unicode="&#x11f;" horiz-adv-x="311" 
d="M108 231v0c21 0 39 -12 43 -33c1 -6 4 -11 5 -11c2 0 10 6 18 13c31 29 54 30 65 4c8 -18 11 -60 7 -93l-4 -27l9 7c5 4 22 19 37 33c34 32 94 75 102 73c3 0 6 -4 6 -9c0 -6 -9 -15 -32 -32c-17 -12 -44 -35 -59 -49s-38 -35 -50 -47c-12 -11 -22 -23 -22 -27
s-6 -28 -14 -54c-33 -113 -82 -211 -134 -268c-31 -34 -91 -69 -119 -69c-6 0 -17 3 -24 7c-23 14 -22 45 5 98c31 64 86 132 176 222c27 28 51 54 53 59c11 29 29 159 22 159c-1 0 -35 -34 -75 -75c-87 -91 -105 -104 -127 -88c-39 27 26 174 91 202c7 3 14 5 21 5z
M116 188v0c-15 0 -50 -49 -68 -97c-4 -10 -7 -18 -7 -19s20 18 44 42c41 40 44 44 42 55c-2 7 -5 15 -8 18c-1 1 -2 1 -3 1zM155 -33v-1c-8 1 -124 -132 -152 -174c-23 -34 -46 -84 -46 -99c0 -12 1 -13 10 -13c6 0 16 3 22 7c32 20 66 57 96 107c19 32 75 168 70 172v1z
M116 296c-8 9 -13 16 -23 33c-9 18 11 27 18 19c7 -10 11 -14 28 -35c25 -33 30 -17 54 8c14 16 28 31 33 34c10 8 26 -4 20 -13c-16 -21 -21 -32 -32 -42c-53 -58 -77 -26 -98 -4z" />
    <glyph glyph-name="gcircumflex" unicode="&#x11d;" horiz-adv-x="311" 
d="M108 231v0c21 0 39 -12 43 -33c1 -6 4 -11 5 -11c2 0 10 6 18 13c31 29 54 30 65 4c8 -18 11 -60 7 -93l-4 -27l9 7c5 4 22 19 37 33c34 32 94 75 102 73c3 0 6 -4 6 -9c0 -6 -9 -15 -32 -32c-17 -12 -44 -35 -59 -49s-38 -35 -50 -47c-12 -11 -22 -23 -22 -27
s-6 -28 -14 -54c-33 -113 -82 -211 -134 -268c-31 -34 -91 -69 -119 -69c-6 0 -17 3 -24 7c-23 14 -22 45 5 98c31 64 86 132 176 222c27 28 51 54 53 59c11 29 29 159 22 159c-1 0 -35 -34 -75 -75c-87 -91 -105 -104 -127 -88c-39 27 26 174 91 202c7 3 14 5 21 5z
M116 188v0c-15 0 -50 -49 -68 -97c-4 -10 -7 -18 -7 -19s20 18 44 42c41 40 44 44 42 55c-2 7 -5 15 -8 18c-1 1 -2 1 -3 1zM155 -33v-1c-8 1 -124 -132 -152 -174c-23 -34 -46 -84 -46 -99c0 -12 1 -13 10 -13c6 0 16 3 22 7c32 20 66 57 96 107c19 32 75 168 70 172v1z
M98 265c-9 9 15 57 47 94c14 15 18 18 30 18s17 -3 32 -18c23 -25 40 -58 37 -74c-2 -7 -5 -15 -7 -18c-6 -7 -26 -7 -26 0c0 3 -3 8 -6 11c-4 2 -13 16 -22 31c-8 14 -17 25 -18 24c-2 -1 -14 -17 -26 -36c-16 -26 -24 -35 -30 -35c-5 0 -10 1 -11 3v0z" />
    <glyph glyph-name="gcommaaccent" unicode="&#x123;" horiz-adv-x="311" 
d="M108 231v0c21 0 39 -12 43 -33c1 -6 4 -11 5 -11c2 0 10 6 18 13c31 29 54 30 65 4c8 -18 11 -60 7 -93l-4 -27l9 7c5 4 22 19 37 33c34 32 94 75 102 73c3 0 6 -4 6 -9c0 -6 -9 -15 -32 -32c-17 -12 -44 -35 -59 -49s-38 -35 -50 -47c-12 -11 -22 -23 -22 -27
s-6 -28 -14 -54c-33 -113 -82 -211 -134 -268c-31 -34 -91 -69 -119 -69c-6 0 -17 3 -24 7c-23 14 -22 45 5 98c31 64 86 132 176 222c27 28 51 54 53 59c11 29 29 159 22 159c-1 0 -35 -34 -75 -75c-87 -91 -105 -104 -127 -88c-39 27 26 174 91 202c7 3 14 5 21 5z
M116 188v0c-15 0 -50 -49 -68 -97c-4 -10 -7 -18 -7 -19s20 18 44 42c41 40 44 44 42 55c-2 7 -5 15 -8 18c-1 1 -2 1 -3 1zM155 -33v-1c-8 1 -124 -132 -152 -174c-23 -34 -46 -84 -46 -99c0 -12 1 -13 10 -13c6 0 16 3 22 7c32 20 66 57 96 107c19 32 75 168 70 172v1z
M191 359c7 -6 6 -8 -9 -32l-15 -21l8 -7c19 -15 20 -36 2 -50c-13 -11 -25 -10 -37 4c-17 21 -10 62 18 93c16 18 25 22 33 13v0z" />
    <glyph glyph-name="gdotaccent" unicode="&#x121;" horiz-adv-x="311" 
d="M108 231v0c21 0 39 -12 43 -33c1 -6 4 -11 5 -11c2 0 10 6 18 13c31 29 54 30 65 4c8 -18 11 -60 7 -93l-4 -27l9 7c5 4 22 19 37 33c34 32 94 75 102 73c3 0 6 -4 6 -9c0 -6 -9 -15 -32 -32c-17 -12 -44 -35 -59 -49s-38 -35 -50 -47c-12 -11 -22 -23 -22 -27
s-6 -28 -14 -54c-33 -113 -82 -211 -134 -268c-31 -34 -91 -69 -119 -69c-6 0 -17 3 -24 7c-23 14 -22 45 5 98c31 64 86 132 176 222c27 28 51 54 53 59c11 29 29 159 22 159c-1 0 -35 -34 -75 -75c-87 -91 -105 -104 -127 -88c-39 27 26 174 91 202c7 3 14 5 21 5z
M116 188v0c-15 0 -50 -49 -68 -97c-4 -10 -7 -18 -7 -19s20 18 44 42c41 40 44 44 42 55c-2 7 -5 15 -8 18c-1 1 -2 1 -3 1zM155 -33v-1c-8 1 -124 -132 -152 -174c-23 -34 -46 -84 -46 -99c0 -12 1 -13 10 -13c6 0 16 3 22 7c32 20 66 57 96 107c19 32 75 168 70 172v1z
M169 317c11 0 24 -12 29 -26c2 -6 0 -11 -9 -20c-14 -13 -28 -15 -39 -4c-16 16 -3 50 19 50z" />
    <glyph glyph-name="hcircumflex" unicode="&#x125;" horiz-adv-x="306" 
d="M-4 -49c-6 6 -6 12 -4 42c4 62 14 106 44 198c50 148 86 232 136 317c27 46 49 70 64 70c20 0 25 -17 13 -52c-7 -22 -10 -25 -21 -26c-20 -1 -87 -159 -148 -354c-15 -46 -24 -78 -22 -78c1 0 11 16 22 36c37 62 93 125 117 131c16 5 29 -3 35 -20c5 -16 5 -17 -11 -114
c-5 -27 -8 -50 -6 -52c8 -7 46 27 135 123c27 29 40 36 45 25c3 -9 -9 -24 -70 -92c-59 -64 -91 -91 -110 -91c-15 0 -32 10 -39 24c-12 22 -8 88 9 151c2 6 -1 4 -12 -6c-22 -21 -45 -52 -75 -102c-15 -25 -29 -48 -31 -52c-2 -3 -11 -21 -21 -40s-20 -37 -22 -39
c-5 -7 -20 -6 -28 1v0zM177 609c-9 9 15 57 47 94c14 15 18 18 30 18s17 -3 32 -18c23 -25 40 -58 37 -74c-2 -7 -5 -15 -7 -18c-6 -7 -26 -7 -26 0c0 3 -3 8 -6 11c-4 2 -13 16 -22 31c-8 14 -17 25 -18 24c-2 -1 -14 -17 -26 -36c-16 -26 -24 -35 -30 -35
c-5 0 -10 1 -11 3v0z" />
    <glyph glyph-name="iacute" unicode="&#xed;" horiz-adv-x="151" 
d="M86 244v0c20 0 26 -21 14 -48c-11 -27 -47 -136 -47 -144c0 -10 3 -9 30 7c14 9 46 37 80 71c32 31 60 57 63 57c9 0 12 -11 6 -21c-10 -15 -103 -109 -121 -123c-26 -19 -55 -33 -69 -33c-8 0 -14 3 -20 10c-11 15 -13 25 -10 63c2 36 14 76 34 119c13 28 27 42 40 42z
M83 322c-7 8 -5 14 16 50c23 41 45 64 59 64c11 0 24 -12 24 -22c0 -15 -56 -80 -79 -92c-11 -6 -14 -6 -20 0v0z" />
    <glyph glyph-name="ibreve" unicode="&#x12d;" horiz-adv-x="151" 
d="M86 244v0c20 0 26 -21 14 -48c-11 -27 -47 -136 -47 -144c0 -10 3 -9 30 7c14 9 46 37 80 71c32 31 60 57 63 57c9 0 12 -11 6 -21c-10 -15 -103 -109 -121 -123c-26 -19 -55 -33 -69 -33c-8 0 -14 3 -20 10c-11 15 -13 25 -10 63c2 36 14 76 34 119c13 28 27 42 40 42z
M50 329c-8 9 -13 16 -23 33c-9 18 11 27 18 19c7 -10 11 -14 28 -35c25 -33 30 -17 54 8c14 16 28 31 33 34c10 8 26 -4 20 -13c-16 -21 -21 -32 -32 -42c-53 -58 -77 -26 -98 -4z" />
    <glyph glyph-name="icircumflex" unicode="&#xee;" horiz-adv-x="151" 
d="M86 244v0c20 0 26 -21 14 -48c-11 -27 -47 -136 -47 -144c0 -10 3 -9 30 7c14 9 46 37 80 71c32 31 60 57 63 57c9 0 12 -11 6 -21c-10 -15 -103 -109 -121 -123c-26 -19 -55 -33 -69 -33c-8 0 -14 3 -20 10c-11 15 -13 25 -10 63c2 36 14 76 34 119c13 28 27 42 40 42z
M32 298c-9 9 15 57 47 94c14 15 18 18 30 18s17 -3 32 -18c23 -25 40 -58 37 -74c-2 -7 -5 -15 -7 -18c-6 -7 -26 -7 -26 0c0 3 -3 8 -6 11c-4 2 -13 16 -22 31c-8 14 -17 25 -18 24c-2 -1 -14 -17 -26 -36c-16 -26 -24 -35 -30 -35c-5 0 -10 1 -11 3v0z" />
    <glyph glyph-name="idieresis" unicode="&#xef;" horiz-adv-x="151" 
d="M86 244v0c20 0 26 -21 14 -48c-11 -27 -47 -136 -47 -144c0 -10 3 -9 30 7c14 9 46 37 80 71c32 31 60 57 63 57c9 0 12 -11 6 -21c-10 -15 -103 -109 -121 -123c-26 -19 -55 -33 -69 -33c-8 0 -14 3 -20 10c-11 15 -13 25 -10 63c2 36 14 76 34 119c13 28 27 42 40 42z
M67 351c11 0 24 -12 29 -26c2 -6 0 -11 -9 -20c-14 -13 -28 -15 -39 -4c-16 16 -3 50 19 50zM163 345c15 -7 20 -19 13 -33c-9 -18 -33 -25 -45 -12v0c-7 7 -8 28 -1 36c9 13 21 16 33 9z" />
    <glyph glyph-name="igrave" unicode="&#xec;" horiz-adv-x="151" 
d="M86 244v0c20 0 26 -21 14 -48c-11 -27 -47 -136 -47 -144c0 -10 3 -9 30 7c14 9 46 37 80 71c32 31 60 57 63 57c9 0 12 -11 6 -21c-10 -15 -103 -109 -121 -123c-26 -19 -55 -33 -69 -33c-8 0 -14 3 -20 10c-11 15 -13 25 -10 63c2 36 14 76 34 119c13 28 27 42 40 42z
M88 312c-41 23 -70 47 -71 58c-3 28 21 35 52 14c24 -16 66 -59 66 -66c0 -11 -7 -22 -14 -21c-4 0 -18 7 -33 15v0z" />
    <glyph glyph-name="iogonek" unicode="&#x12f;" horiz-adv-x="151" 
d="M149 340c-9 -23 -30 -30 -41 -14c-9 12 -8 25 1 41c7 11 16 17 25 17c4 1 8 -1 12 -3c11 -7 12 -19 3 -41zM221 191c9 0 12 -11 6 -21c-10 -15 -103 -109 -121 -123c-15 -11 -32 -21 -45 -27c2 -4 4 -9 7 -15c18 -40 11 -51 -28 -47c-25 2 -30 -1 -26 -16
c5 -23 45 -38 69 -25c8 4 10 4 15 0c14 -11 -2 -32 -29 -38c-52 -13 -111 42 -90 84c8 15 23 24 39 25c7 0 13 0 13 1c0 0 -4 10 -10 22c-3 6 -5 12 -6 16c-9 13 -11 25 -8 60c2 36 14 76 34 119c13 28 27 42 40 42c20 0 26 -21 14 -48c-11 -27 -47 -136 -47 -144
c0 -10 3 -9 30 7c14 9 46 37 80 71c32 31 60 57 63 57z" />
    <glyph glyph-name="itilde" unicode="&#x129;" horiz-adv-x="151" 
d="M86 244v0c20 0 26 -21 14 -48c-11 -27 -47 -136 -47 -144c0 -10 3 -9 30 7c14 9 46 37 80 71c32 31 60 57 63 57c9 0 12 -11 6 -21c-10 -15 -103 -109 -121 -123c-26 -19 -55 -33 -69 -33c-8 0 -14 3 -20 10c-11 15 -13 25 -10 63c2 36 14 76 34 119c13 28 27 42 40 42z
M123 302c-6 6 -15 18 -20 27c-5 10 -10 17 -11 17c-5 0 -16 -13 -16 -20c0 -10 -15 -18 -23 -14c-16 8 -5 40 20 59c27 20 53 10 68 -27c12 -26 22 -21 38 15c7 15 10 18 17 17c8 -1 9 -3 8 -21c-1 -49 -49 -80 -81 -53z" />
    <glyph glyph-name="jcircumflex" unicode="&#x135;" horiz-adv-x="169" 
d="M70 245v0c7 0 14 -2 18 -7c11 -12 9 -84 -4 -146l-3 -13l17 14c72 63 134 110 143 110c3 0 8 -3 10 -6c4 -5 4 -7 -4 -16c-5 -5 -17 -15 -27 -21c-23 -16 -95 -77 -127 -107l-26 -25l-25 -86c-28 -95 -44 -138 -70 -190c-44 -86 -88 -134 -147 -158
c-28 -11 -36 -11 -56 -1c-49 24 -34 95 40 195c32 43 101 124 143 167l37 39l16 59c9 33 19 79 23 102c10 57 15 74 24 83c5 5 11 7 18 7zM-27 -59c-1 1 -90 -102 -122 -142c-62 -77 -94 -148 -76 -170c8 -9 16 -7 42 10c24 16 44 38 64 71c16 25 44 81 57 115
c11 28 37 114 35 116zM18 334c-9 9 15 57 47 94c14 15 18 18 30 18s17 -3 32 -18c23 -25 40 -58 37 -74c-2 -7 -5 -15 -7 -18c-6 -7 -26 -7 -26 0c0 3 -3 8 -6 11c-4 2 -13 16 -22 31c-8 14 -17 25 -18 24c-2 -1 -14 -17 -26 -36c-16 -26 -24 -35 -30 -35c-5 0 -10 1 -11 3
v0z" />
    <glyph glyph-name="kcommaaccent" unicode="&#x137;" horiz-adv-x="315" 
d="M87 -154c-7 7 -6 9 9 32l15 22l-8 6c-19 15 -20 37 -3 51c14 10 26 9 38 -5c17 -21 10 -62 -18 -93c-16 -18 -25 -21 -33 -13zM-2 -86c-15 19 -8 78 23 191c25 92 97 279 144 371c7 14 9 21 6 24c-8 8 -4 21 13 43c16 23 56 63 62 63c2 0 7 -2 12 -6
c17 -11 10 -40 -28 -119c-32 -67 -128 -311 -128 -324c0 -2 8 5 18 14c27 26 73 60 96 70c24 11 40 9 42 -7c2 -12 -7 -21 -45 -43c-65 -39 -104 -72 -104 -88c0 -12 30 -37 50 -43c35 -11 51 -4 120 52c55 45 103 80 108 80c8 0 15 -10 12 -16c-1 -3 -10 -11 -20 -18
c-10 -6 -42 -31 -70 -55c-87 -72 -113 -85 -155 -72c-28 9 -55 28 -66 47c-6 10 -10 14 -11 10c-3 -9 -28 -99 -33 -123c-3 -12 -5 -26 -5 -31c1 -7 -2 -13 -11 -20c-15 -13 -20 -13 -30 0v0z" />
    <glyph glyph-name="lacute" unicode="&#x13a;" horiz-adv-x="214" 
d="M16 -147c-55 34 -20 210 109 557c14 37 27 71 29 75c2 5 2 9 -3 13c-3 4 -6 10 -6 14c0 21 59 102 75 102c15 0 22 -9 22 -25c0 -9 -14 -56 -32 -106c-17 -49 -34 -99 -38 -111s-24 -71 -45 -133c-37 -108 -71 -223 -83 -280c-7 -30 -8 -75 -2 -75s51 41 73 67
c23 27 72 98 121 174c37 58 48 70 57 63c3 -3 6 -7 6 -8c0 -8 -120 -195 -153 -238c-22 -29 -74 -80 -91 -88c-20 -10 -24 -10 -39 -1v0zM207 656c-7 8 -5 14 16 50c23 41 45 64 59 64c11 0 24 -12 24 -22c0 -15 -56 -80 -79 -92c-11 -6 -14 -6 -20 0v0z" />
    <glyph glyph-name="lcaron" unicode="&#x13e;" horiz-adv-x="222" 
d="M16 -147c-55 34 -20 210 109 557c14 37 27 71 29 75c2 5 2 9 -3 13c-3 4 -6 10 -6 14c0 21 59 102 75 102c15 0 22 -9 22 -25c0 -9 -14 -56 -32 -106c-17 -49 -34 -99 -38 -111s-24 -71 -45 -133c-37 -108 -71 -223 -83 -280c-7 -30 -8 -75 -2 -75s51 41 73 67
c23 27 72 98 121 174c37 58 48 70 57 63c3 -3 6 -7 6 -8c0 -8 -120 -195 -153 -238c-22 -29 -74 -80 -91 -88c-20 -10 -24 -10 -39 -1v0zM201 280c-7 6 -6 8 9 32l15 21l-8 7c-19 15 -20 36 -3 50c14 11 26 10 38 -4c17 -21 10 -62 -18 -93c-16 -18 -25 -22 -33 -13v0z" />
    <glyph glyph-name="lcommaaccent" unicode="&#x13c;" horiz-adv-x="214" 
d="M9 -306c-7 7 -6 9 9 32l15 22l-8 6c-19 15 -20 37 -3 51c14 10 26 9 38 -5c17 -21 10 -62 -18 -93c-16 -18 -25 -21 -33 -13zM16 -147c-55 34 -20 210 109 557c14 37 27 71 29 75c2 5 2 9 -3 13c-3 4 -6 10 -6 14c0 21 59 102 75 102c15 0 22 -9 22 -25
c0 -9 -14 -56 -32 -106c-17 -49 -34 -99 -38 -111s-24 -71 -45 -133c-37 -108 -71 -223 -83 -280c-7 -30 -8 -75 -2 -75s51 41 73 67c23 27 72 98 121 174c37 58 48 70 57 63c3 -3 6 -7 6 -8c0 -8 -120 -195 -153 -238c-22 -29 -74 -80 -91 -88c-20 -10 -24 -10 -39 -1v0z
" />
    <glyph glyph-name="ldot" unicode="&#x140;" horiz-adv-x="214" 
d="M156 199c-13 9 -15 13 -15 29c0 21 17 38 39 38c19 0 28 -7 32 -24c4 -15 -7 -36 -23 -43c-16 -8 -21 -8 -33 0zM16 -147c-55 34 -20 210 109 557c14 37 27 71 29 75c2 5 2 9 -3 13c-3 4 -6 10 -6 14c0 21 59 102 75 102c15 0 22 -9 22 -25c0 -9 -14 -56 -32 -106
c-17 -49 -34 -99 -38 -111s-24 -71 -45 -133c-37 -108 -71 -223 -83 -280c-7 -30 -8 -75 -2 -75s51 41 73 67c23 27 72 98 121 174c37 58 48 70 57 63c3 -3 6 -7 6 -8c0 -8 -120 -195 -153 -238c-22 -29 -74 -80 -91 -88c-20 -10 -24 -10 -39 -1v0z" />
    <glyph glyph-name="lslash" unicode="&#x142;" horiz-adv-x="214" 
d="M11 95c-13 1 -24 14 -22 27c3 8 22 29 56 58c21 66 47 142 80 230l29 75c2 5 2 9 -3 13c-3 4 -6 10 -6 14c0 21 59 102 75 102c15 0 22 -9 22 -25c0 -9 -14 -56 -32 -106l-38 -111l-44 -129c15 10 27 17 31 16c12 -2 21 -12 18 -22c-2 -6 -42 -42 -75 -72
c-27 -83 -49 -162 -58 -206c-7 -30 -8 -75 -2 -75s51 41 73 67c23 27 72 98 121 174c37 58 48 70 57 63c3 -3 6 -7 6 -8c0 -8 -120 -195 -153 -238c-22 -29 -74 -80 -91 -88c-20 -10 -24 -10 -39 -1c-35 22 -33 101 5 245c-4 -2 -7 -3 -10 -3z" />
    <glyph glyph-name="nacute" unicode="&#x144;" horiz-adv-x="344" 
d="M23 12c-14 17 -12 77 6 133c18 61 43 100 62 100c11 0 24 -11 24 -21c0 -4 -7 -26 -14 -46c-14 -37 -33 -99 -32 -105c0 -1 3 2 8 7c34 41 112 122 126 131c26 16 42 15 52 -4c7 -13 7 -57 1 -98c-2 -16 -3 -30 -2 -32c5 -5 36 15 73 46c84 71 88 74 94 70
c12 -7 9 -16 -9 -33c-10 -9 -30 -27 -44 -40c-76 -70 -112 -90 -138 -74c-22 14 -30 50 -21 103c3 16 4 30 3 31c-3 3 -58 -56 -103 -110c-20 -23 -42 -47 -48 -53c-13 -11 -31 -13 -38 -5v0zM152 282c-7 8 -5 14 16 50c23 41 45 64 59 64c11 0 24 -12 24 -22
c0 -15 -56 -80 -79 -92c-11 -6 -14 -6 -20 0v0z" />
    <glyph glyph-name="napostrophe" unicode="&#x149;" horiz-adv-x="344" 
d="M77 270c-7 7 -6 9 9 32l15 22l-8 6c-19 15 -20 37 -3 51c14 10 26 9 38 -5c17 -21 10 -62 -18 -93c-16 -18 -25 -21 -33 -13zM23 12c-14 17 -12 77 6 133c18 61 43 100 62 100c11 0 24 -11 24 -21c0 -4 -7 -26 -14 -46c-14 -37 -33 -99 -32 -105c0 -1 3 2 8 7
c34 41 112 122 126 131c26 16 42 15 52 -4c7 -13 7 -57 1 -98c-2 -16 -3 -30 -2 -32c5 -5 36 15 73 46c84 71 88 74 94 70c12 -7 9 -16 -9 -33c-10 -9 -30 -27 -44 -40c-76 -70 -112 -90 -138 -74c-22 14 -30 50 -21 103c3 16 4 30 3 31c-3 3 -58 -56 -103 -110
c-20 -23 -42 -47 -48 -53c-13 -11 -31 -13 -38 -5v0z" />
    <glyph glyph-name="ncaron" unicode="&#x148;" horiz-adv-x="344" 
d="M23 12c-14 17 -12 77 6 133c18 61 43 100 62 100c11 0 24 -11 24 -21c0 -4 -7 -26 -14 -46c-14 -37 -33 -99 -32 -105c0 -1 3 2 8 7c34 41 112 122 126 131c26 16 42 15 52 -4c7 -13 7 -57 1 -98c-2 -16 -3 -30 -2 -32c5 -5 36 15 73 46c84 71 88 74 94 70
c12 -7 9 -16 -9 -33c-10 -9 -30 -27 -44 -40c-76 -70 -112 -90 -138 -74c-22 14 -30 50 -21 103c3 16 4 30 3 31c-3 3 -58 -56 -103 -110c-20 -23 -42 -47 -48 -53c-13 -11 -31 -13 -38 -5v0zM143 280c-22 15 -37 31 -48 53c-9 18 -9 24 -1 32c14 14 38 1 63 -36
c7 -11 14 -19 15 -19c2 0 12 13 24 29c12 17 25 33 29 37c10 9 21 7 23 -3c1 -8 -52 -92 -64 -101c-10 -8 -21 -6 -41 8v0z" />
    <glyph glyph-name="ncommaaccent" unicode="&#x146;" horiz-adv-x="344" 
d="M86 -127c-7 7 -6 9 9 32l15 22l-8 6c-19 15 -20 37 -3 51c14 10 26 9 38 -5c17 -21 10 -62 -18 -93c-16 -18 -25 -21 -33 -13zM23 12c-14 17 -12 77 6 133c18 61 43 100 62 100c11 0 24 -11 24 -21c0 -4 -7 -26 -14 -46c-14 -37 -33 -99 -32 -105c0 -1 3 2 8 7
c34 41 112 122 126 131c26 16 42 15 52 -4c7 -13 7 -57 1 -98c-2 -16 -3 -30 -2 -32c5 -5 36 15 73 46c84 71 88 74 94 70c12 -7 9 -16 -9 -33c-10 -9 -30 -27 -44 -40c-76 -70 -112 -90 -138 -74c-22 14 -30 50 -21 103c3 16 4 30 3 31c-3 3 -58 -56 -103 -110
c-20 -23 -42 -47 -48 -53c-13 -11 -31 -13 -38 -5v0z" />
    <glyph glyph-name="ntilde" unicode="&#xf1;" horiz-adv-x="344" 
d="M23 12c-14 17 -12 77 6 133c18 61 43 100 62 100c11 0 24 -11 24 -21c0 -4 -7 -26 -14 -46c-14 -37 -33 -99 -32 -105c0 -1 3 2 8 7c34 41 112 122 126 131c26 16 42 15 52 -4c7 -13 7 -57 1 -98c-2 -16 -3 -30 -2 -32c5 -5 36 15 73 46c84 71 88 74 94 70
c12 -7 9 -16 -9 -33c-10 -9 -30 -27 -44 -40c-76 -70 -112 -90 -138 -74c-22 14 -30 50 -21 103c3 16 4 30 3 31c-3 3 -58 -56 -103 -110c-20 -23 -42 -47 -48 -53c-13 -11 -31 -13 -38 -5v0zM192 262c-6 6 -15 18 -20 27c-5 10 -10 17 -11 17c-5 0 -16 -13 -16 -20
c0 -10 -15 -18 -23 -14c-16 8 -5 40 20 59c27 20 53 10 68 -27c12 -26 22 -21 38 15c7 15 10 18 17 17c8 -1 9 -3 8 -21c-1 -49 -49 -80 -81 -53z" />
    <glyph glyph-name="oacute" unicode="&#xf3;" horiz-adv-x="247" 
d="M107 253v0c13 0 35 -16 35 -26c0 -3 4 -9 10 -13c5 -4 11 -15 14 -23c3 -12 8 -17 17 -21c23 -10 48 -10 88 -1c54 12 61 12 61 0s-9 -17 -50 -28c-32 -8 -75 -10 -97 -3c-11 3 -12 2 -14 -7c-10 -49 -21 -74 -41 -98c-22 -28 -58 -37 -82 -22c-27 16 -36 38 -36 82
c0 38 12 81 31 111c16 24 48 49 64 49zM123 208l-11 -10c-35 -33 -59 -126 -39 -150c6 -7 6 -7 19 0c23 11 44 51 49 91c2 18 1 22 -8 35c-5 8 -10 19 -10 25v9zM87 297c-7 8 -5 14 16 50c23 41 45 64 59 64c11 0 24 -12 24 -22c0 -15 -56 -80 -79 -92c-11 -6 -14 -6 -20 0
v0z" />
    <glyph glyph-name="obreve" unicode="&#x14f;" horiz-adv-x="247" 
d="M107 253v0c13 0 35 -16 35 -26c0 -3 4 -9 10 -13c5 -4 11 -15 14 -23c3 -12 8 -17 17 -21c23 -10 48 -10 88 -1c54 12 61 12 61 0s-9 -17 -50 -28c-32 -8 -75 -10 -97 -3c-11 3 -12 2 -14 -7c-10 -49 -21 -74 -41 -98c-22 -28 -58 -37 -82 -22c-27 16 -36 38 -36 82
c0 38 12 81 31 111c16 24 48 49 64 49zM123 208l-11 -10c-35 -33 -59 -126 -39 -150c6 -7 6 -7 19 0c23 11 44 51 49 91c2 18 1 22 -8 35c-5 8 -10 19 -10 25v9zM54 304c-8 9 -13 16 -23 33c-9 18 11 27 18 19c7 -10 11 -14 28 -35c25 -33 30 -17 54 8c14 16 28 31 33 34
c10 8 26 -4 20 -13c-16 -21 -21 -32 -32 -42c-53 -58 -77 -26 -98 -4z" />
    <glyph glyph-name="ocircumflex" unicode="&#xf4;" horiz-adv-x="247" 
d="M107 253v0c13 0 35 -16 35 -26c0 -3 4 -9 10 -13c5 -4 11 -15 14 -23c3 -12 8 -17 17 -21c23 -10 48 -10 88 -1c54 12 61 12 61 0s-9 -17 -50 -28c-32 -8 -75 -10 -97 -3c-11 3 -12 2 -14 -7c-10 -49 -21 -74 -41 -98c-22 -28 -58 -37 -82 -22c-27 16 -36 38 -36 82
c0 38 12 81 31 111c16 24 48 49 64 49zM123 208l-11 -10c-35 -33 -59 -126 -39 -150c6 -7 6 -7 19 0c23 11 44 51 49 91c2 18 1 22 -8 35c-5 8 -10 19 -10 25v9zM36 273c-9 9 15 57 47 94c14 15 18 18 30 18s17 -3 32 -18c23 -25 40 -58 37 -74c-2 -7 -5 -15 -7 -18
c-6 -7 -26 -7 -26 0c0 3 -3 8 -6 11c-4 2 -13 16 -22 31c-8 14 -17 25 -18 24c-2 -1 -14 -17 -26 -36c-16 -26 -24 -35 -30 -35c-5 0 -10 1 -11 3v0z" />
    <glyph glyph-name="odieresis" unicode="&#xf6;" horiz-adv-x="247" 
d="M107 253v0c13 0 35 -16 35 -26c0 -3 4 -9 10 -13c5 -4 11 -15 14 -23c3 -12 8 -17 17 -21c23 -10 48 -10 88 -1c54 12 61 12 61 0s-9 -17 -50 -28c-32 -8 -75 -10 -97 -3c-11 3 -12 2 -14 -7c-10 -49 -21 -74 -41 -98c-22 -28 -58 -37 -82 -22c-27 16 -36 38 -36 82
c0 38 12 81 31 111c16 24 48 49 64 49zM123 208l-11 -10c-35 -33 -59 -126 -39 -150c6 -7 6 -7 19 0c23 11 44 51 49 91c2 18 1 22 -8 35c-5 8 -10 19 -10 25v9zM71 326c11 0 24 -12 29 -26c2 -6 0 -11 -9 -20c-14 -13 -28 -15 -39 -4c-16 16 -3 50 19 50zM167 320
c15 -7 20 -19 13 -33c-9 -18 -33 -25 -45 -12v0c-7 7 -8 28 -1 36c9 13 21 16 33 9z" />
    <glyph glyph-name="ograve" unicode="&#xf2;" horiz-adv-x="247" 
d="M107 253v0c13 0 35 -16 35 -26c0 -3 4 -9 10 -13c5 -4 11 -15 14 -23c3 -12 8 -17 17 -21c23 -10 48 -10 88 -1c54 12 61 12 61 0s-9 -17 -50 -28c-32 -8 -75 -10 -97 -3c-11 3 -12 2 -14 -7c-10 -49 -21 -74 -41 -98c-22 -28 -58 -37 -82 -22c-27 16 -36 38 -36 82
c0 38 12 81 31 111c16 24 48 49 64 49zM123 208l-11 -10c-35 -33 -59 -126 -39 -150c6 -7 6 -7 19 0c23 11 44 51 49 91c2 18 1 22 -8 35c-5 8 -10 19 -10 25v9zM92 287c-41 23 -70 47 -71 58c-3 28 21 35 52 14c24 -16 66 -59 66 -66c0 -11 -7 -22 -14 -21
c-4 0 -18 7 -33 15v0z" />
    <glyph glyph-name="ohungarumlaut" unicode="&#x151;" horiz-adv-x="247" 
d="M107 253v0c13 0 35 -16 35 -26c0 -3 4 -9 10 -13c5 -4 11 -15 14 -23c3 -12 8 -17 17 -21c23 -10 48 -10 88 -1c54 12 61 12 61 0s-9 -17 -50 -28c-32 -8 -75 -10 -97 -3c-11 3 -12 2 -14 -7c-10 -49 -21 -74 -41 -98c-22 -28 -58 -37 -82 -22c-27 16 -36 38 -36 82
c0 38 12 81 31 111c16 24 48 49 64 49zM123 208l-11 -10c-35 -33 -59 -126 -39 -150c6 -7 6 -7 19 0c23 11 44 51 49 91c2 18 1 22 -8 35c-5 8 -10 19 -10 25v9zM58 275c-7 8 -5 14 16 50c23 41 45 64 59 64c11 0 24 -12 24 -22c0 -15 -56 -80 -79 -92c-11 -6 -14 -6 -20 0
v0zM138 275c-7 8 -5 14 16 50c23 41 45 64 59 64c11 0 24 -12 24 -22c0 -15 -56 -80 -79 -92c-11 -6 -14 -6 -20 0v0z" />
    <glyph glyph-name="oslashacute" unicode="&#x1ff;" horiz-adv-x="247" 
d="M267 170c54 12 61 12 61 0s-9 -17 -50 -28c-32 -8 -75 -10 -97 -3c-11 3 -12 2 -14 -7c-10 -49 -21 -74 -41 -98c-22 -28 -58 -37 -82 -22c-2 2 -5 3 -7 5l-27 -36c-12 -11 -21 -18 -30 -8c-3 4 -6 12 -6 17c2 3 18 25 41 56c-5 13 -7 28 -7 48c0 38 12 81 31 111
c16 24 48 49 64 49c13 0 35 -16 35 -26c0 -2 2 -5 5 -9c19 25 37 48 52 66c11 13 40 -2 30 -15l-61 -83c3 -8 8 -13 15 -16c23 -10 48 -10 88 -1zM108 199c-17 -17 -32 -49 -40 -80c17 23 36 48 54 72c-2 3 -3 7 -3 9v9zM137 140c1 5 1 10 1 13l-72 -98l3 -6c6 -7 6 -7 19 0
c23 11 44 51 49 91zM87 297c-7 8 -5 14 16 50c23 41 45 64 59 64c11 0 24 -12 24 -22c0 -15 -56 -80 -79 -92c-11 -6 -14 -6 -20 0v0z" />
    <glyph glyph-name="otilde" unicode="&#xf5;" horiz-adv-x="247" 
d="M107 253v0c13 0 35 -16 35 -26c0 -3 4 -9 10 -13c5 -4 11 -15 14 -23c3 -12 8 -17 17 -21c23 -10 48 -10 88 -1c54 12 61 12 61 0s-9 -17 -50 -28c-32 -8 -75 -10 -97 -3c-11 3 -12 2 -14 -7c-10 -49 -21 -74 -41 -98c-22 -28 -58 -37 -82 -22c-27 16 -36 38 -36 82
c0 38 12 81 31 111c16 24 48 49 64 49zM123 208l-11 -10c-35 -33 -59 -126 -39 -150c6 -7 6 -7 19 0c23 11 44 51 49 91c2 18 1 22 -8 35c-5 8 -10 19 -10 25v9zM127 277c-6 6 -15 18 -20 27c-5 10 -10 17 -11 17c-5 0 -16 -13 -16 -20c0 -10 -15 -18 -23 -14
c-16 8 -5 40 20 59c27 20 53 10 68 -27c12 -26 22 -21 38 15c7 15 10 18 17 17c8 -1 9 -3 8 -21c-1 -49 -49 -80 -81 -53z" />
    <glyph glyph-name="racute" unicode="&#x155;" horiz-adv-x="248" 
d="M77 -109c-16 10 -24 32 -24 68c0 41 11 92 30 136c9 21 16 39 16 41s-8 5 -17 6c-32 5 -45 10 -52 23c-14 23 -7 56 18 82c14 15 31 17 43 5c9 -9 10 -19 2 -34c-2 -5 -7 -17 -9 -25c-4 -13 -3 -15 5 -18c12 -4 36 2 45 11c16 17 38 6 38 -20c0 -7 -6 -31 -14 -53
c-35 -99 -40 -117 -46 -143c-3 -15 -6 -32 -6 -38c0 -10 1 -10 11 -5c22 12 54 51 117 143c63 91 82 110 92 93c4 -4 -2 -14 -24 -46c-16 -22 -43 -61 -61 -87c-55 -83 -91 -124 -120 -139c-18 -9 -29 -9 -44 0v0zM118 266c-7 8 -5 14 16 50c23 41 45 64 59 64
c11 0 24 -12 24 -22c0 -15 -56 -80 -79 -92c-11 -6 -14 -6 -20 0v0z" />
    <glyph glyph-name="rcaron" unicode="&#x159;" horiz-adv-x="248" 
d="M77 -109c-16 10 -24 32 -24 68c0 41 11 92 30 136c9 21 16 39 16 41s-8 5 -17 6c-32 5 -45 10 -52 23c-14 23 -7 56 18 82c14 15 31 17 43 5c9 -9 10 -19 2 -34c-2 -5 -7 -17 -9 -25c-4 -13 -3 -15 5 -18c12 -4 36 2 45 11c16 17 38 6 38 -20c0 -7 -6 -31 -14 -53
c-35 -99 -40 -117 -46 -143c-3 -15 -6 -32 -6 -38c0 -10 1 -10 11 -5c22 12 54 51 117 143c63 91 82 110 92 93c4 -4 -2 -14 -24 -46c-16 -22 -43 -61 -61 -87c-55 -83 -91 -124 -120 -139c-18 -9 -29 -9 -44 0v0zM109 264c-22 15 -37 31 -48 53c-9 18 -9 24 -1 32
c14 14 38 1 63 -36c7 -11 14 -19 15 -19c2 0 12 13 24 29c12 17 25 33 29 37c10 9 21 7 23 -3c1 -8 -52 -92 -64 -101c-10 -8 -21 -6 -41 8v0z" />
    <glyph glyph-name="rcommaaccent" unicode="&#x157;" horiz-adv-x="248" 
d="M64 -277c-7 7 -6 9 9 32l15 22l-8 6c-19 15 -20 37 -3 51c14 10 26 9 38 -5c17 -21 10 -62 -18 -93c-16 -18 -25 -21 -33 -13zM77 -109c-16 10 -24 32 -24 68c0 41 11 92 30 136c9 21 16 39 16 41s-8 5 -17 6c-32 5 -45 10 -52 23c-14 23 -7 56 18 82c14 15 31 17 43 5
c9 -9 10 -19 2 -34c-2 -5 -7 -17 -9 -25c-4 -13 -3 -15 5 -18c12 -4 36 2 45 11c16 17 38 6 38 -20c0 -7 -6 -31 -14 -53c-35 -99 -40 -117 -46 -143c-3 -15 -6 -32 -6 -38c0 -10 1 -10 11 -5c22 12 54 51 117 143c63 91 82 110 92 93c4 -4 -2 -14 -24 -46
c-16 -22 -43 -61 -61 -87c-55 -83 -91 -124 -120 -139c-18 -9 -29 -9 -44 0v0z" />
    <glyph glyph-name="sacute" unicode="&#x15b;" horiz-adv-x="189" 
d="M90 253v0c7 0 14 -2 18 -5c8 -7 5 -43 -6 -67l-9 -18l8 -20c5 -11 11 -26 13 -33s4 -14 5 -14c0 -1 25 14 54 32c87 56 88 56 95 49c4 -4 6 -8 6 -11c-1 -2 -35 -26 -75 -53l-73 -49l3 -24c7 -50 -5 -101 -32 -131c-30 -35 -88 -53 -121 -37c-9 4 -20 13 -24 20
c-21 34 -1 69 71 126l40 32l-2 17c-1 10 -6 31 -11 48c-13 42 -13 78 0 106c6 11 14 23 19 26c6 3 14 5 21 6zM66 14v0c-3 0 -9 -3 -17 -10c-28 -22 -62 -56 -68 -68c-16 -30 8 -43 44 -25c27 14 38 32 43 66c4 26 4 37 -2 37zM69 303c-7 8 -5 14 16 50c23 41 45 64 59 64
c11 0 24 -12 24 -22c0 -15 -56 -80 -79 -92c-11 -6 -14 -6 -20 0v0z" />
    <glyph glyph-name="scaron" unicode="&#x161;" horiz-adv-x="189" 
d="M90 253v0c7 0 14 -2 18 -5c8 -7 5 -43 -6 -67l-9 -18l8 -20c5 -11 11 -26 13 -33s4 -14 5 -14c0 -1 25 14 54 32c87 56 88 56 95 49c4 -4 6 -8 6 -11c-1 -2 -35 -26 -75 -53l-73 -49l3 -24c7 -50 -5 -101 -32 -131c-30 -35 -88 -53 -121 -37c-9 4 -20 13 -24 20
c-21 34 -1 69 71 126l40 32l-2 17c-1 10 -6 31 -11 48c-13 42 -13 78 0 106c6 11 14 23 19 26c6 3 14 5 21 6zM66 14v0c-3 0 -9 -3 -17 -10c-28 -22 -62 -56 -68 -68c-16 -30 8 -43 44 -25c27 14 38 32 43 66c4 26 4 37 -2 37zM60 301c-22 15 -37 31 -48 53
c-9 18 -9 24 -1 32c14 14 38 1 63 -36c7 -11 14 -19 15 -19c2 0 12 13 24 29c12 17 25 33 29 37c10 9 21 7 23 -3c1 -8 -52 -92 -64 -101c-10 -8 -21 -6 -41 8v0z" />
    <glyph glyph-name="scedilla" unicode="&#x15f;" horiz-adv-x="189" 
d="M263 178c4 -4 6 -8 6 -11c-1 -2 -35 -26 -75 -53l-73 -49l3 -24c7 -50 -5 -101 -32 -131c-16 -18 -39 -32 -62 -38l12 -24c18 -40 11 -51 -28 -47c-25 2 -30 -1 -26 -16c5 -23 45 -38 69 -25c8 4 10 4 15 0c14 -11 -2 -32 -29 -38c-52 -13 -111 42 -90 84
c8 15 23 24 39 25c7 0 13 0 13 1c0 0 -4 10 -10 22c-3 5 -5 10 -6 14c-6 1 -13 2 -18 5c-9 4 -20 13 -24 20c-21 34 -1 69 71 126l40 32l-2 17c-1 10 -6 31 -11 48c-13 42 -13 78 0 106c6 11 14 23 19 26c6 3 14 5 21 6c7 0 14 -2 18 -5c8 -7 5 -43 -6 -67l-9 -18l8 -20
c5 -11 11 -26 13 -33s4 -14 5 -14c0 -1 25 14 54 32c87 56 88 56 95 49zM63 -22c4 26 4 37 -2 37c-3 0 -9 -3 -17 -10c-28 -22 -62 -56 -68 -68c-16 -30 8 -43 44 -25c27 14 38 32 43 66z" />
    <glyph glyph-name="scircumflex" unicode="&#x15d;" horiz-adv-x="189" 
d="M90 253v0c7 0 14 -2 18 -5c8 -7 5 -43 -6 -67l-9 -18l8 -20c5 -11 11 -26 13 -33s4 -14 5 -14c0 -1 25 14 54 32c87 56 88 56 95 49c4 -4 6 -8 6 -11c-1 -2 -35 -26 -75 -53l-73 -49l3 -24c7 -50 -5 -101 -32 -131c-30 -35 -88 -53 -121 -37c-9 4 -20 13 -24 20
c-21 34 -1 69 71 126l40 32l-2 17c-1 10 -6 31 -11 48c-13 42 -13 78 0 106c6 11 14 23 19 26c6 3 14 5 21 6zM66 14v0c-3 0 -9 -3 -17 -10c-28 -22 -62 -56 -68 -68c-16 -30 8 -43 44 -25c27 14 38 32 43 66c4 26 4 37 -2 37zM18 279c-9 9 15 57 47 94c14 15 18 18 30 18
s17 -3 32 -18c23 -25 40 -58 37 -74c-2 -7 -5 -15 -7 -18c-6 -7 -26 -7 -26 0c0 3 -3 8 -6 11c-4 2 -13 16 -22 31c-8 14 -17 25 -18 24c-2 -1 -14 -17 -26 -36c-16 -26 -24 -35 -30 -35c-5 0 -10 1 -11 3v0z" />
    <glyph glyph-name="scommaaccent" unicode="&#x219;" horiz-adv-x="189" 
d="M-51 -272c8 -8 17 -5 33 13c28 31 35 72 18 93c-12 14 -24 15 -38 5c-17 -14 -16 -36 3 -51l8 -6l-15 -22c-15 -23 -16 -25 -9 -32zM90 253v0c7 0 14 -2 18 -5c8 -7 5 -43 -6 -67l-9 -18l8 -20c5 -11 11 -26 13 -33s4 -14 5 -14c0 -1 25 14 54 32c87 56 88 56 95 49
c4 -4 6 -8 6 -11c-1 -2 -35 -26 -75 -53l-73 -49l3 -24c7 -50 -5 -101 -32 -131c-30 -35 -88 -53 -121 -37c-9 4 -20 13 -24 20c-21 34 -1 69 71 126l40 32l-2 17c-1 10 -6 31 -11 48c-13 42 -13 78 0 106c6 11 14 23 19 26c6 3 14 5 21 6zM66 14v0c-3 0 -9 -3 -17 -10
c-28 -22 -62 -56 -68 -68c-16 -30 8 -43 44 -25c27 14 38 32 43 66c4 26 4 37 -2 37z" />
    <glyph glyph-name="tcaron" unicode="&#x165;" horiz-adv-x="226" 
d="M20 -152c-18 16 -21 35 -19 96c4 79 23 173 61 292c10 33 19 60 19 61s-6 1 -14 -1c-19 -6 -38 -3 -39 5c-2 7 14 15 44 21c18 4 19 5 24 19c6 20 30 87 34 94c2 4 0 8 -5 12c-7 5 -7 7 -3 20c11 35 66 111 80 111c3 0 9 -3 15 -7c9 -8 10 -10 9 -25
c-1 -9 -16 -58 -33 -108c-18 -49 -32 -92 -32 -93c0 -2 12 -4 26 -3c25 0 26 0 26 -9s-2 -10 -23 -12c-37 -5 -38 -6 -48 -38c-4 -16 -15 -49 -23 -73s-16 -48 -17 -53s-5 -18 -8 -30c-19 -65 -26 -93 -36 -142c-13 -63 -18 -109 -13 -112c6 -3 37 27 73 70
c29 35 48 63 120 175c33 52 50 70 59 67c3 -1 6 -5 6 -8c0 -6 -105 -176 -133 -215c-61 -83 -104 -124 -131 -124c-4 0 -13 4 -19 10v0zM253 326c-7 6 -6 8 9 32l15 21l-8 7c-19 15 -20 36 -3 50c14 11 26 10 38 -4c17 -21 10 -62 -18 -93c-16 -18 -25 -22 -33 -13v0z" />
    <glyph glyph-name="tcommaaccent" unicode="&#x163;" horiz-adv-x="218" 
d="M0 -306c-7 7 -6 9 9 32l15 22l-8 6c-19 15 -20 37 -3 51c14 10 26 9 38 -5c17 -21 10 -62 -18 -93c-16 -18 -25 -21 -33 -13zM20 -152c-18 16 -21 35 -19 96c4 79 23 173 61 292c10 33 19 60 19 61s-6 1 -14 -1c-19 -6 -38 -3 -39 5c-2 7 14 15 44 21c18 4 19 5 24 19
c6 20 30 87 34 94c2 4 0 8 -5 12c-7 5 -7 7 -3 20c11 35 66 111 80 111c3 0 9 -3 15 -7c9 -8 10 -10 9 -25c-1 -9 -16 -58 -33 -108c-18 -49 -32 -92 -32 -93c0 -2 12 -4 26 -3c25 0 26 0 26 -9s-2 -10 -23 -12c-37 -5 -38 -6 -48 -38c-4 -16 -15 -49 -23 -73
s-16 -48 -17 -53s-5 -18 -8 -30c-19 -65 -26 -93 -36 -142c-13 -63 -18 -109 -13 -112c6 -3 37 27 73 70c29 35 48 63 120 175c33 52 50 70 59 67c3 -1 6 -5 6 -8c0 -6 -105 -176 -133 -215c-61 -83 -104 -124 -131 -124c-4 0 -13 4 -19 10v0z" />
    <glyph glyph-name="uacute" unicode="&#xfa;" horiz-adv-x="306" 
d="M146 -94c-14 9 -25 30 -28 53c-1 18 4 62 13 97l6 21l-35 -37c-56 -60 -84 -73 -105 -49c-5 6 -11 18 -12 26c-5 25 4 71 24 115c32 74 54 98 76 84c14 -9 12 -26 -4 -62c-14 -30 -48 -122 -48 -129s8 -3 30 18c37 34 101 111 114 137c15 30 32 42 46 32
c17 -11 16 -23 -7 -85c-36 -100 -49 -141 -51 -167c-3 -31 1 -34 23 -22c26 16 56 51 129 154c28 39 53 72 56 72c6 0 13 -8 13 -14s-62 -100 -97 -146c-53 -69 -95 -105 -122 -105c-5 0 -14 3 -21 7v0zM125 266c-7 8 -5 14 16 50c23 41 45 64 59 64c11 0 24 -12 24 -22
c0 -15 -56 -80 -79 -92c-11 -6 -14 -6 -20 0v0z" />
    </font>
</defs>
</svg>
